<?xml version="1.0" standalone="no"?>
<!DOCTYPE svg PUBLIC "-//W3C//DTD SVG 1.1//EN" "http://www.w3.org/Graphics/SVG/1.1/DTD/svg11.dtd" >
<svg>
<metadata>
Created by FontForge 20090622 at Tue Jan  5 17:35:16 2016
 By deploy user
1992 Just van Rossum, published by Fontshop International for the FontFont library.
</metadata>
<defs>
<font id="SchulbuchNord-Fett" horiz-adv-x="556" >
  <font-face 
    font-family="SchulbuchNord-Fett"
    font-weight="400"
    font-stretch="normal"
    units-per-em="1000"
    panose-1="2 0 0 3 4 0 0 2 0 4"
    ascent="800"
    descent="-200"
    x-height="532"
    cap-height="720"
    bbox="-170 -231 993 995"
    underline-thickness="0"
    underline-position="0"
    unicode-range="U+0020-U+FB02"
  />
<missing-glyph horiz-adv-x="1000" 
 />
    <glyph glyph-name=".notdef" horiz-adv-x="1000" 
 />
    <glyph glyph-name=".null" horiz-adv-x="0" 
 />
    <glyph glyph-name="nonmarkingreturn" horiz-adv-x="500" 
 />
    <glyph glyph-name="space" unicode=" " horiz-adv-x="264" 
 />
    <glyph glyph-name="space" unicode="&#xa0;" horiz-adv-x="264" 
 />
    <glyph glyph-name="dollar" unicode="$" 
d="M301 95q12 1 26 3.5t27 11.5t21.5 27t8.5 51q0 7 -0.5 17.5t-8 23t-24.5 25.5t-50 25v-184zM175 520q0 -21 6.5 -35t18 -24t25.5 -16.5t29 -12.5v166q-29 -1 -44.5 -9.5t-23.5 -20.5t-9.5 -25t-1.5 -23zM45 503q0 39 11 75t35.5 64t64.5 46t98 22v65h47v-66
q41 -3 78.5 -16t66.5 -38.5t46.5 -64t19.5 -91.5h-132q-1 9 -2 25t-8 31.5t-22.5 28.5t-46.5 16v-181l74.5 -26.5t72.5 -36.5t54.5 -59.5t21.5 -95.5q0 -57 -18 -97t-48.5 -65.5t-70.5 -39t-85 -17.5v-98h-48v97q-53 6 -95 20t-71 40.5t-44 68.5t-15 105h136q3 -25 6 -44.5
t11 -34.5t25 -25.5t47 -16.5v202q-58 15 -98 34t-64.5 43.5t-35.5 56.5t-11 73z" />
    <glyph glyph-name="percent" unicode="%" horiz-adv-x="889" 
d="M208 603q-31 0 -53 -22t-22 -53t22 -53t53 -22t53 22t22 53t-22 53t-53 22zM685 245q-31 0 -53 -22t-22 -53t22 -53t53 -22t53 22t22 53t-22 53t-53 22zM208 698q35 0 66 -13.5t54 -36.5t36.5 -54t13.5 -66t-13.5 -66t-36.5 -54t-54 -36.5t-66 -13.5t-66 13.5t-54 36.5
t-36.5 54t-13.5 66t13.5 66t36.5 54t54 36.5t66 13.5zM685 340q35 0 66 -13.5t54 -36.5t36.5 -54t13.5 -66t-13.5 -66t-36.5 -54t-54 -36.5t-66 -13.5t-66 13.5t-54 36.5t-36.5 54t-13.5 66t13.5 66t36.5 54t54 36.5t66 13.5zM689 696l-391 -715h-103l391 715h103z" />
    <glyph glyph-name="ampersand" unicode="&#x26;" horiz-adv-x="727" 
d="M199 195q0 -9 4 -24.5t14.5 -30.5t30 -26t51.5 -11q19 0 36.5 5.5t32 13t25.5 15.5t17 14l-128 159q-15 -9 -30 -20t-26.5 -24.5t-19 -31t-7.5 -39.5zM275 554q0 -8 1.5 -15.5t7 -16.5t15 -22t25.5 -33q9 6 20.5 14.5t21.5 19t16.5 24t6.5 30.5q0 4 -1.5 13t-7 18.5
t-17 16.5t-31.5 7q-26 0 -41.5 -15.5t-15.5 -40.5zM143 549q0 43 15.5 75t41.5 52.5t60.5 30.5t73.5 10q26 0 57 -7t57.5 -25.5t45 -49.5t19.5 -79q0 -26 -5 -49.5t-18.5 -45t-36 -41.5t-57.5 -40l99 -123q36 51 38 119h127q-1 -17 -4 -39.5t-11.5 -50.5t-25 -60.5
t-44.5 -68.5l132 -157h-175l-48 59q-12 -10 -26.5 -23.5t-36.5 -25.5t-53.5 -20t-77.5 -8q-59 0 -103 19t-73 49.5t-44 67.5t-15 73t8.5 64t27 52.5t47.5 47t69 47.5q5 -6 -4 3.5t-22.5 30.5t-25.5 50.5t-12 62.5z" />
    <glyph glyph-name="quotesingle" unicode="'" horiz-adv-x="243" 
d="M184 720l-26 -299h-87l-26 299h139z" />
    <glyph glyph-name="parenleft" unicode="(" horiz-adv-x="333" 
d="M43 257q0 43 7 95t26 111.5t53 126.5t88 141l82 -1q-35 -63 -60 -115.5t-40.5 -105t-23 -111t-7.5 -132.5q0 -49 4.5 -99.5t18.5 -107t39.5 -121t66.5 -140.5h-84q-85 115 -127.5 228t-42.5 231z" />
    <glyph glyph-name="parenright" unicode=")" horiz-adv-x="333" 
d="M121 731q82 -112 126 -226.5t44 -232.5q0 -40 -6.5 -90.5t-25 -110.5t-53 -128.5t-91.5 -144.5h-108l46 84.5t43.5 102t32 125t12.5 154.5q0 77 -10 141t-28 120t-41.5 106t-50.5 100h110z" />
    <glyph glyph-name="asterisk" unicode="*" horiz-adv-x="389" 
d="M233 725v-119l102 33l23 -74l-104 -32l69 -98l-64 -46l-68 92l-71 -92l-63 46l68 98l-103 32l23 74l102 -33v119h86z" />
    <glyph glyph-name="plus" unicode="+" horiz-adv-x="584" 
d="M366 531v-199h199v-132h-199v-200h-132v200h-199v132h199v199h132z" />
    <glyph glyph-name="comma" unicode="," horiz-adv-x="278" 
d="M210 150v-129q0 -44 -13.5 -79.5t-35.5 -60.5t-50 -38.5t-56 -13.5v54q15 4 30 11t27 19.5t20.5 33.5t10.5 53h-88v150h155z" />
    <glyph glyph-name="hyphen" unicode="-" horiz-adv-x="333" 
d="M305 347v-136h-284v136h284z" />
    <glyph glyph-name="hyphen" unicode="&#xad;" horiz-adv-x="333" 
d="M305 347v-136h-284v136h284z" />
    <glyph glyph-name="period" unicode="." horiz-adv-x="278" 
d="M212 150v-150h-151v150h151z" />
    <glyph glyph-name="slash" unicode="/" horiz-adv-x="278" 
d="M344 745l-285 -745h-119l284 745h120z" />
    <glyph glyph-name="zero" unicode="0" 
d="M178 348q0 -36 1 -79.5t10 -81t29 -63t58 -25.5q23 0 41 9.5t30 36.5t18.5 75.5t6.5 126.5q0 85 -7 134.5t-20 75t-30.5 32.5t-39.5 7q-27 0 -45.5 -11t-30 -39t-16.5 -76t-5 -122zM31 348q0 35 1.5 75.5t8.5 81t22 78.5t42 67t68.5 46.5t101.5 17.5q70 0 117.5 -24.5
t76 -71.5t40.5 -115.5t12 -155.5q0 -86 -12.5 -153.5t-41 -114.5t-75.5 -72t-116 -25q-70 0 -117 24.5t-75.5 71.5t-40.5 115t-12 155z" />
    <glyph glyph-name="one" unicode="1" 
d="M66 585q44 2 77.5 6t57.5 16.5t38.5 36t21.5 65.5h119v-709h-146v487h-168v98z" />
    <glyph glyph-name="two" unicode="2" 
d="M38 460q4 121 60 186.5t171 65.5q43 0 87 -11.5t79 -38t57.5 -70.5t22.5 -109q0 -42 -12.5 -75.5t-32.5 -61.5t-46 -50.5t-54 -42.5l-54 -39l-61 -45t-40 -42h302v-127h-486q0 33 6.5 66.5t25 69.5t53 74t90.5 80l48 36l32.5 24.5t38 35t31.5 46t13 57.5q0 14 -3.5 32
t-14 33.5t-29 26t-47.5 10.5q-17 0 -33 -3t-29.5 -16t-22.5 -39.5t-12 -72.5h-140z" />
    <glyph glyph-name="three" unicode="3" 
d="M39 484q1 42 11.5 83t36.5 73.5t70 52t112 19.5q42 0 83 -11t72.5 -34.5t51 -60t19.5 -88.5q0 -48 -24 -86.5t-62 -54.5q54 -19 80.5 -62.5t26.5 -106.5q0 -35 -11 -74.5t-39 -73t-75.5 -56t-119.5 -22.5q-43 0 -85 8.5t-76 34t-57 71.5t-27 121h142q0 -18 3 -38.5
t13.5 -38.5t30.5 -29.5t54 -11.5q10 0 26.5 3.5t32.5 15t27 32.5t11 56q0 25 -7 44.5t-24 32.5t-46 20t-72 7h-4v102h8q73 1 101 23.5t28 71.5q0 13 -3.5 28.5t-13 29t-26.5 22.5t-44 9q-19 0 -36 -6t-29.5 -19.5t-19.5 -34.5t-5 -52h-134z" />
    <glyph glyph-name="four" unicode="4" 
d="M305 262v305l-174 -305h174zM281 704h164v-442h78v-112h-78v-150h-141v150h-278v126z" />
    <glyph glyph-name="five" unicode="5" 
d="M489 700v-121h-288l-25 -151l28 16t25 12t29 7.5t40 2.5q40 0 79 -13t70 -41t50 -72t19 -106q0 -39 -12 -83t-40.5 -82t-76.5 -63t-121 -25q-51 0 -93.5 14t-74 41t-50.5 65.5t-23 88.5h144q3 -13 7.5 -29t14.5 -30t27.5 -23.5t46.5 -9.5q19 0 37.5 6.5t32.5 21.5
t22.5 38.5t8.5 58.5q0 20 -4 42.5t-14.5 41t-30 31t-50.5 12.5q-65 0 -90 -49l-130 7l50 392h392z" />
    <glyph glyph-name="six" unicode="6" 
d="M174 225q0 -20 5 -42t17 -41t32 -31.5t51 -12.5q14 0 30.5 4.5t31 18t24 37t9.5 62.5q0 21 -4.5 43.5t-15.5 40.5t-30.5 30t-49.5 12q-40 0 -70 -29.5t-30 -91.5zM30 320q0 84 12 156.5t41 125.5t77 83.5t121 30.5q97 0 156.5 -49t67.5 -136h-143q1 3 -1 14t-10 23
t-23.5 21.5t-42.5 9.5q-56 0 -80.5 -47.5t-33.5 -147.5q18 19 36 30t35.5 17t33.5 7.5t31 1.5q41 0 79.5 -14t68.5 -42t48 -71t18 -100q0 -21 -3.5 -47.5t-12.5 -54.5t-26 -55t-44 -48t-65.5 -34t-91.5 -13t-98 19.5t-78.5 60.5t-52.5 105.5t-19 153.5z" />
    <glyph glyph-name="seven" unicode="7" 
d="M527 700v-112q-56 -59 -103 -131.5t-81 -150.5t-52.5 -157t-16.5 -149h-150q2 76 25 159t58.5 161t79 144t86.5 107h-349l2 129h501z" />
    <glyph glyph-name="eight" unicode="8" 
d="M175 207q0 -17 3.5 -36t14 -34.5t29.5 -26t51 -10.5q15 0 32.5 4.5t32 16t24 32.5t9.5 54q0 59 -29 83.5t-69 24.5q-13 0 -30 -2.5t-32 -13.5t-25.5 -32.5t-10.5 -59.5zM187 510q0 -14 3.5 -29t13 -27.5t26.5 -21t43 -8.5q15 0 30 4t27.5 13.5t20.5 26t8 41.5
q0 15 -3.5 30.5t-13.5 28.5t-26.5 21t-42.5 8q-12 0 -27 -3t-28 -12t-22 -26.5t-9 -45.5zM50 526q0 35 13.5 68.5t41 59.5t69.5 42t99 16q43 0 83 -11t71 -33.5t50 -58t19 -84.5q0 -12 -2.5 -30t-11 -38t-25 -39.5t-43.5 -34.5q51 -29 78 -75t27 -113q0 -39 -15 -77.5
t-46.5 -69t-79 -49t-112.5 -18.5q-53 0 -97.5 14.5t-76.5 42t-49.5 67.5t-17.5 91q0 20 4 44.5t15.5 49.5t32 47.5t54.5 39.5q-37 25 -59 60t-22 89z" />
    <glyph glyph-name="nine" unicode="9" 
d="M175 473q0 -18 2.5 -39.5t12 -40.5t30 -31.5t56.5 -12.5q14 0 31 5t32 18t25 36t10 59q0 60 -26.5 94.5t-74.5 34.5q-17 0 -34.5 -5.5t-31.5 -19t-23 -37.5t-9 -61zM29 459q0 53 16 100t46 81.5t74 54.5t101 20q81 0 131.5 -31t78 -81.5t37.5 -115.5t10 -132
q0 -41 -4 -84.5t-14 -85.5t-28.5 -79.5t-47.5 -65.5t-70.5 -44.5t-97.5 -16.5q-42 0 -79.5 12.5t-66.5 36t-47.5 57.5t-23.5 78h144q5 -35 28 -50t52 -15q32 0 52.5 14.5t32.5 40t17.5 60.5t7.5 76q-6 -7 -15.5 -16.5t-24.5 -18.5t-38 -15.5t-56 -6.5q-29 0 -66.5 9.5
t-70.5 35t-55.5 69.5t-22.5 113z" />
    <glyph glyph-name="colon" unicode=":" horiz-adv-x="338" 
d="M266 150v-150h-153v150h153zM266 510v-148h-153v148h153z" />
    <glyph glyph-name="semicolon" unicode=";" horiz-adv-x="338" 
d="M269 150v-129q0 -44 -13.5 -79.5t-35.5 -60.5t-50 -38.5t-57 -13.5v54q15 4 29.5 10t26.5 18.5t20.5 33.5t11.5 55h-88v150h156zM266 510v-148h-153v148h153z" />
    <glyph glyph-name="semicolon" unicode="&#x37e;" horiz-adv-x="338" 
d="M269 150v-129q0 -44 -13.5 -79.5t-35.5 -60.5t-50 -38.5t-57 -13.5v54q15 4 29.5 10t26.5 18.5t20.5 33.5t11.5 55h-88v150h156zM266 510v-148h-153v148h153z" />
    <glyph glyph-name="less" unicode="&#x3c;" horiz-adv-x="584" 
d="M586 549v-141l-404 -142l404 -143v-141l-575 219v129z" />
    <glyph glyph-name="equal" unicode="=" horiz-adv-x="584" 
d="M565 217v-133h-530v133h530zM565 447v-134h-530v134h530z" />
    <glyph glyph-name="greater" unicode="&#x3e;" horiz-adv-x="584" 
d="M586 329v-128l-575 -219v141l405 143l-405 142v141z" />
    <glyph glyph-name="question" unicode="?" horiz-adv-x="616" 
d="M389 145v-145h-151v145h151zM58 493q2 49 16.5 92t44 74.5t74 49.5t106.5 18q43 0 89 -9.5t84 -33.5t62.5 -64.5t24.5 -102.5q0 -25 -5 -47t-17 -43t-32 -42t-51 -44l-33 -25q-17 -12 -30 -35t-13 -70h-136q1 42 4 69t11 46.5t23.5 34.5t41.5 34l35 26q17 13 32.5 34
t15.5 53q0 19 -5.5 36.5t-17 30.5t-30.5 21t-46 8q-48 0 -75 -31t-26 -80h-147z" />
    <glyph glyph-name="at" unicode="@" horiz-adv-x="971" 
d="M398 319q0 -14 3 -28t10 -25t19 -18t29 -7q22 0 43.5 20t38 50.5t26.5 66t10 66.5q0 7 -2 17.5t-8 19.5t-17 15.5t-29 6.5q-27 0 -50 -19t-39 -47t-25 -60t-9 -58zM96 355q0 84 33 155t90.5 123t135 81.5t166.5 29.5q58 0 122 -16t117 -52t87.5 -95t34.5 -144
q0 -52 -17.5 -100.5t-47.5 -86t-70.5 -60.5t-86.5 -23q-42 0 -68 22.5t-26 55.5v9q0 5 1 6q-9 -17 -21.5 -34t-29.5 -30t-39 -21t-50 -8q-27 0 -52 10t-43.5 30t-30 50.5t-11.5 72.5q0 35 13 77.5t39.5 79t65 61t89.5 24.5q15 0 31 -2.5t30.5 -10.5t26.5 -23t19 -40l18 59
h94l-62 -212q-5 -15 -9.5 -30.5t-4.5 -29.5q0 -3 0.5 -9.5t4.5 -13t12.5 -12t23.5 -5.5q13 0 34.5 10t41.5 33.5t34.5 62t14.5 94.5q0 66 -26.5 110t-67.5 70.5t-89.5 37t-92.5 10.5q-65 0 -129 -19.5t-115 -59.5t-82.5 -99.5t-31.5 -140.5q0 -74 28.5 -130t76 -94t108 -57
t124.5 -19q14 0 39 0.5t59.5 8.5t79 27.5t97.5 57.5l36 -56q-27 -20 -59.5 -39.5t-72 -35.5t-86 -25.5t-100.5 -9.5q-116 0 -194 36.5t-125 92t-67 121.5t-20 125z" />
    <glyph glyph-name="A" unicode="A" horiz-adv-x="727" 
d="M278 270h179l-88 279zM458 720l254 -720h-168l-44 141h-264l-46 -141h-164l256 720h176z" />
    <glyph glyph-name="B" unicode="B" horiz-adv-x="727" 
d="M227 129h174q60 0 89.5 22.5t29.5 77.5q0 42 -27.5 64t-87.5 22h-178v-186zM227 438h177q54 0 78 19t24 59q0 37 -26 56t-97 19h-156v-153zM409 720q127 0 186.5 -49t59.5 -139q0 -44 -16.5 -80.5t-70.5 -65.5q48 -17 78.5 -58t30.5 -110q0 -39 -12 -78t-42.5 -70
t-82.5 -50.5t-132 -19.5h-328v720h329z" />
    <glyph glyph-name="C" unicode="C" horiz-adv-x="722" 
d="M531 478q-11 57 -46.5 89.5t-109.5 32.5q-36 0 -67 -14.5t-54 -45t-36 -77.5t-13 -111q0 -65 14 -110t37.5 -73.5t54.5 -41.5t65 -13q61 0 102 33t52 96h154q-3 -40 -20.5 -86t-53.5 -85.5t-93 -65.5t-138 -26q-70 0 -131 22.5t-106 68t-71 116t-26 166.5q0 97 25.5 169
t71 118.5t107 69.5t133.5 23q77 0 133.5 -22.5t94 -58.5t56 -82t20.5 -92h-155z" />
    <glyph glyph-name="D" unicode="D" horiz-adv-x="722" 
d="M226 129h136q75 0 120.5 58t45.5 181q0 64 -10 107t-30 68.5t-51.5 36.5t-74.5 11h-136v-462zM374 720q69 0 126.5 -20t99 -61.5t64 -106t22.5 -154.5q0 -89 -20.5 -159t-59 -119t-94 -74.5t-124.5 -25.5h-313v720h299z" />
    <glyph glyph-name="E" unicode="E" horiz-adv-x="667" 
d="M608 720v-132h-375v-146h344v-129h-344v-180h394v-133h-546v720h527z" />
    <glyph glyph-name="F" unicode="F" horiz-adv-x="611" 
d="M586 719v-131h-356v-160h313v-128h-313v-300h-155v719h511z" />
    <glyph glyph-name="G" unicode="G" horiz-adv-x="778" 
d="M41 354q0 84 23.5 154.5t69.5 121.5t113.5 79.5t156.5 28.5q64 0 118 -19.5t94 -52.5t64.5 -77.5t29.5 -94.5h-154q-3 25 -16.5 46.5t-34.5 37t-49 24t-61 8.5q-42 0 -78 -16t-62 -48.5t-40.5 -81t-14.5 -113.5q0 -61 15 -106t41 -74.5t61.5 -44t77.5 -14.5q72 0 118 39
t60 111h-160v124h298v-386h-103l-14 90q-14 -21 -34.5 -41t-47.5 -35t-62 -24t-79 -9q-70 0 -130 26t-104.5 74t-70 117t-25.5 156z" />
    <glyph glyph-name="H" unicode="H" horiz-adv-x="722" 
d="M229 720v-273h271v273h156v-720h-156v320h-271v-320h-154v720h154z" />
    <glyph glyph-name="I" unicode="I" horiz-adv-x="278" 
d="M216 720v-720h-155v720h155z" />
    <glyph glyph-name="J" unicode="J" horiz-adv-x="562" 
d="M488 720v-500q0 -115 -53 -176.5t-172 -61.5q-62 0 -107 14.5t-74.5 47.5t-44 87t-14.5 133v13h147v-13q0 -48 4.5 -78t15 -47.5t27 -23.5t39.5 -6q18 0 32.5 4t24 15.5t15 32t5.5 53.5v506h155z" />
    <glyph glyph-name="K" unicode="K" horiz-adv-x="727" 
d="M233 720v-292l269 292h201l-294 -298l310 -422h-200l-220 309l-66 -69v-240h-154v720h154z" />
    <glyph glyph-name="L" unicode="L" horiz-adv-x="616" 
d="M232 720v-587h356v-133h-512v720h156z" />
    <glyph glyph-name="M" unicode="M" horiz-adv-x="833" 
d="M300 720l123 -562l123 562h225v-720h-146v493v26t0.5 24.5t0.5 26.5v34l-129 -604h-151l-128 604q0 -33 0.5 -57.5t0.5 -53.5v-493h-145v720h226z" />
    <glyph glyph-name="N" unicode="N" horiz-adv-x="722" 
d="M235 720l280 -495v495h144v-720h-154l-286 504v-504h-145v720h161z" />
    <glyph glyph-name="O" unicode="O" horiz-adv-x="778" 
d="M205 362q0 -66 15 -113t41 -78t60.5 -45.5t73.5 -14.5q40 0 74.5 15.5t60 46.5t40 77.5t14.5 109.5q0 64 -15 111.5t-40.5 78t-60 45.5t-73.5 15q-41 0 -75.5 -15t-60 -46t-40 -77.5t-14.5 -109.5zM50 362q0 93 25.5 164.5t71.5 119.5t109.5 72.5t139.5 24.5
q75 0 137.5 -24t108.5 -71.5t71.5 -119.5t25.5 -168q0 -92 -24.5 -162.5t-69 -119t-108 -73.5t-141.5 -25q-80 0 -144 25.5t-109 74t-69 119.5t-24 163z" />
    <glyph glyph-name="P" unicode="P" horiz-adv-x="667" 
d="M234 383h134q51 0 80 24.5t29 81.5q0 48 -24.5 75t-84.5 27h-134v-208zM392 720q118 0 178.5 -59t60.5 -171q0 -118 -59.5 -176.5t-192.5 -58.5h-145v-255h-155v720h313z" />
    <glyph glyph-name="Q" unicode="Q" horiz-adv-x="778" 
d="M205 362q0 -63 14 -110t39 -78.5t59.5 -47t75.5 -15.5q22 0 44 5t38 14l-73 70l80 83l71 -69l11.5 27.5t10 30t7 38t2.5 50.5q2 116 -44.5 183t-144.5 67q-88 0 -139 -61.5t-51 -186.5zM50 362q0 84 23.5 154t67.5 120.5t108.5 78.5t147.5 28q78 0 141 -28t108 -77.5
t69 -117.5t24 -148q0 -91 -21 -157.5t-55 -104.5l81 -77l-82 -84l-85 81q-18 -11 -36.5 -20.5t-39.5 -16t-47 -10t-60 -3.5q-78 0 -141.5 26.5t-108.5 76t-69.5 120t-24.5 159.5z" />
    <glyph glyph-name="R" unicode="R" horiz-adv-x="722" 
d="M231 402h165q55 0 86.5 18.5t31.5 71.5q0 54 -26 76.5t-89 22.5h-168v-189zM434 720q60 0 104.5 -15.5t73.5 -43.5t43.5 -65.5t14.5 -81.5q0 -63 -30 -108.5t-82 -62.5q24 -9 41.5 -22.5t29 -33.5t17 -48.5t4.5 -68.5l-1 -43q-1 -39 4 -71.5t17 -55.5h-160q-5 14 -10 42
t-6 61l-1 61q0 33 -5 55.5t-18 35.5t-34.5 18.5t-55.5 5.5h-149v-279h-152v720h355z" />
    <glyph glyph-name="S" unicode="S" horiz-adv-x="667" 
d="M51 516q0 48 17.5 89t52.5 71.5t87 48t122 17.5q58 0 108.5 -17t87.5 -47.5t59 -74.5t24 -98h-149q-3 54 -40 81t-101 27q-60 0 -92 -24.5t-32 -61.5q0 -17 5 -29t18.5 -21.5t37.5 -18t62 -17.5l127 -29q40 -9 74 -24t59.5 -38.5t40 -57.5t14.5 -81q0 -45 -17.5 -86.5
t-53.5 -73.5t-90.5 -51t-127.5 -19q-68 0 -123.5 15t-95.5 45t-62 75t-22 105h149q7 -60 41 -86.5t106 -26.5q146 0 146 92q0 12 -3.5 23t-16 22t-38 21t-70.5 20l-114 26q-93 21 -141.5 68t-48.5 136z" />
    <glyph glyph-name="T" unicode="T" horiz-adv-x="611" 
d="M599 720v-132h-212v-588h-158v588h-213v132h583z" />
    <glyph glyph-name="U" unicode="U" horiz-adv-x="722" 
d="M234 720v-443q0 -47 8.5 -78.5t25 -51t41.5 -27.5t58 -8q73 0 101.5 39t28.5 126v443h159v-445q0 -146 -68 -220t-222 -74q-71 0 -125 15.5t-91 50.5t-56 91t-19 137v445h159z" />
    <glyph glyph-name="V" unicode="V" horiz-adv-x="667" 
d="M189 720l151 -540l154 540h160l-244 -720h-146l-241 720h166z" />
    <glyph glyph-name="W" unicode="W" horiz-adv-x="944" 
d="M179 720l95 -407l19 -114l20 111l76 410h165l80 -405l21 -116l22 110l94 411h158l-203 -720h-149l-82 413l-24 144l-26 -144l-82 -413h-143l-205 720h164z" />
    <glyph glyph-name="X" unicode="X" horiz-adv-x="667" 
d="M212 720l122 -230l127 230h180l-218 -346l233 -374h-190l-131 240l-139 -240h-181l230 367l-219 353h186z" />
    <glyph glyph-name="Y" unicode="Y" horiz-adv-x="667" 
d="M200 720l144 -311l137 311h176l-237 -451v-269h-157v269l-246 451h183z" />
    <glyph glyph-name="Z" unicode="Z" horiz-adv-x="611" 
d="M584 720v-124l-370 -465h371v-131h-560v132l365 456h-357v132h551z" />
    <glyph glyph-name="bracketleft" unicode="[" horiz-adv-x="338" 
d="M314 728v-106h-115v-709h115v-104h-251v919h251z" />
    <glyph glyph-name="backslash" unicode="\" horiz-adv-x="278" 
d="M62 745l280 -745h-120l-279 745h119z" />
    <glyph glyph-name="bracketright" unicode="]" horiz-adv-x="338" 
d="M274 728v-919h-251v104h114v712h-114v103h251z" />
    <glyph glyph-name="asciicircum" unicode="^" horiz-adv-x="595" 
d="M250 720h112l181 -433h-127l-110 272l-110 -272h-127z" />
    <glyph glyph-name="underscore" unicode="_" 
d="M556 -76v-49h-556v49h556z" />
    <glyph glyph-name="grave" unicode="`" horiz-adv-x="333" 
d="M135 752l94 -147h-103l-150 147h159z" />
    <glyph glyph-name="a" unicode="a" horiz-adv-x="616" 
d="M179 264q0 -86 33 -122.5t82 -36.5q24 0 45.5 8.5t37.5 27t25.5 47.5t9.5 70q0 78 -30.5 120t-87.5 42q-52 0 -83.5 -39t-31.5 -117zM31 252q0 70 17 125t47.5 92.5t73 57t93.5 19.5t90 -24t61 -69v79h142v-532h-141v74q-24 -40 -61.5 -65.5t-100.5 -25.5q-43 0 -83 18.5
t-70.5 53t-49 84.5t-18.5 113z" />
    <glyph glyph-name="b" unicode="b" horiz-adv-x="616" 
d="M200 258q0 -72 31.5 -112.5t88.5 -40.5q46 0 78 37t32 115q0 85 -29 123t-86 38q-58 0 -86.5 -42t-28.5 -118zM205 719v-256q26 39 62.5 60.5t90.5 21.5q49 0 90 -18.5t71 -53.5t46.5 -85.5t16.5 -114.5q0 -72 -17.5 -126t-47.5 -90t-70.5 -53.5t-86.5 -17.5
q-55 0 -90 18t-68 63v-67h-142v719h145z" />
    <glyph glyph-name="c" unicode="c" horiz-adv-x="562" 
d="M36 256q0 65 16 118.5t48 91.5t79 59t109 21q110 0 170 -48t72 -158h-148q-5 34 -25 59t-65 25q-21 0 -40 -7t-34 -25.5t-23.5 -50.5t-8.5 -81q0 -33 5 -62t17 -50t32 -33.5t51 -12.5q48 0 68 27t22 65h148q-3 -41 -21 -79.5t-49 -68t-74.5 -47.5t-97.5 -18
q-125 0 -188 71t-63 204z" />
    <glyph glyph-name="d" unicode="d" horiz-adv-x="616" 
d="M179 264q0 -86 33 -122.5t82 -36.5q24 0 45.5 8.5t37.5 27t25.5 47.5t9.5 70q0 78 -30.5 120t-87.5 42q-52 0 -83.5 -39t-31.5 -117zM31 252q0 70 17 125t47.5 92.5t73 57t93.5 19.5q45 0 83.5 -20.5t62.5 -59.5v253h147v-719h-141v74q-24 -40 -61.5 -65.5t-100.5 -25.5
q-43 0 -83 18.5t-70.5 53t-49 84.5t-18.5 113z" />
    <glyph glyph-name="e" unicode="e" 
d="M379 321q-2 51 -28.5 79.5t-75.5 28.5q-46 0 -72 -28.5t-33 -79.5h209zM22 262q0 67 19 120t52.5 89.5t79.5 56t101 19.5q61 0 109 -18.5t81 -57.5t49.5 -99.5t14.5 -144.5h-362q1 -57 29.5 -92.5t88.5 -35.5q28 0 54.5 11.5t39.5 43.5h149q-3 -35 -20.5 -66t-48.5 -54.5
t-75 -37.5t-100 -14q-47 0 -93.5 14.5t-83.5 47.5t-60.5 86.5t-23.5 131.5z" />
    <glyph glyph-name="f" unicode="f" horiz-adv-x="338" 
d="M86 528v30q0 44 8 76t28 52.5t55 30.5t88 10q33 0 54 -3v-116q-5 1 -15 1.5t-24 0.5q-48 0 -48 -38v-44h92v-101h-92v-427h-144v427h-78v101h76z" />
    <glyph glyph-name="g" unicode="g" horiz-adv-x="616" 
d="M182 266q0 -31 7 -58t21 -46.5t36 -31t51 -11.5q24 0 44.5 8.5t35.5 26.5t24 46.5t9 69.5q0 78 -33 114t-82 36q-54 0 -83.5 -38t-29.5 -116zM32 266q0 66 17 118t47 88t72 55t92 19q45 0 84.5 -19.5t66.5 -70.5v77h141v-507q0 -62 -14 -107.5t-45.5 -75.5t-82.5 -45
t-124 -16q-43 0 -84.5 8t-75 26.5t-55.5 49.5t-26 77h157q6 -23 24 -37t69 -14q30 0 51.5 7.5t35 25t20 47t6.5 73.5v37q-8 -15 -18.5 -30t-27.5 -27t-42 -19.5t-62 -7.5q-51 0 -92.5 18t-71 52t-46 84t-16.5 114z" />
    <glyph glyph-name="h" unicode="h" horiz-adv-x="616" 
d="M210 717v-253q28 43 67.5 63t84.5 20q42 0 77 -10.5t60 -34.5t38.5 -62.5t13.5 -94.5v-345h-147v323q0 57 -23.5 80.5t-61.5 23.5q-23 0 -43 -7t-34.5 -23.5t-23 -43.5t-8.5 -67v-286h-144v717h144z" />
    <glyph glyph-name="i" unicode="i" horiz-adv-x="284" 
d="M213 725v-131h-146v131h146zM213 533v-533h-146v533h146z" />
    <glyph glyph-name="j" unicode="j" horiz-adv-x="284" 
d="M216 725v-131h-144v131h144zM216 531v-586q0 -26 -2.5 -54.5t-17.5 -52t-47 -38.5t-91 -15q-13 0 -26.5 0.5t-25.5 0.5v115q7 -1 14.5 -1.5t12.5 -0.5q17 0 28 9t11 38v585h144z" />
    <glyph glyph-name="k" unicode="k" horiz-adv-x="562" 
d="M205 717v-384l169 198h178l-185 -205l192 -326h-174l-123 224l-57 -60v-164h-142v717h142z" />
    <glyph glyph-name="l" unicode="l" horiz-adv-x="296" 
d="M212 151q0 -26 10.5 -38t28.5 -12h14q10 0 13 1v-108q-8 -1 -17 -1h-16h-33q-41 0 -68.5 11.5t-44.5 30t-24 43.5t-7 52v590h144v-569z" />
    <glyph glyph-name="m" unicode="m" horiz-adv-x="895" 
d="M203 532v-77q27 45 62 67.5t92 22.5q106 0 144 -92q28 49 69 70.5t96 21.5q31 0 60.5 -10t53 -32t37.5 -58t14 -88v-357h-147v338q0 37 -18 61t-60 24q-16 0 -31.5 -4t-28 -16t-20 -32.5t-7.5 -53.5v-317h-145v315q0 54 -17.5 80t-60.5 26q-41 0 -64 -22t-23 -78v-321
h-146v532h140z" />
    <glyph glyph-name="n" unicode="n" horiz-adv-x="616" 
d="M205 532v-77q60 91 159 91q88 0 138.5 -44.5t50.5 -141.5v-360h-148v323q0 57 -22 80t-67 23q-20 0 -39 -5.5t-34 -20.5t-24 -42.5t-9 -71.5v-286h-144v532h139z" />
    <glyph glyph-name="o" unicode="o" horiz-adv-x="616" 
d="M183 266q0 -82 32 -123t92 -41q57 0 90.5 42t33.5 120q0 85 -33.5 125t-90.5 40q-22 0 -44 -6.5t-40 -24.5t-29 -50t-11 -82zM32 266q0 61 18 113.5t53 90t86 59t118 21.5q66 0 117 -20t86.5 -57t53.5 -90t18 -119q0 -61 -17.5 -113t-52 -89.5t-86 -59t-118.5 -21.5
q-65 0 -116 21t-86.5 58.5t-54.5 90t-19 115.5z" />
    <glyph glyph-name="p" unicode="p" horiz-adv-x="616" 
d="M199 255q0 -75 30 -112t87 -37q54 0 85 41t31 119q0 69 -28 110.5t-88 41.5q-53 0 -85 -38t-32 -125zM199 533v-79q25 38 62 64.5t97 26.5q46 0 87 -18t71 -52.5t47.5 -85t17.5 -116.5q0 -71 -17 -124.5t-47 -90t-72 -55t-91 -18.5q-46 0 -84.5 21t-65.5 63v-278h-143
v742h138z" />
    <glyph glyph-name="q" unicode="q" horiz-adv-x="616" 
d="M179 261q0 -154 115 -154q57 0 88 39.5t31 120.5q0 76 -32.5 114.5t-86.5 38.5q-50 0 -82.5 -38t-32.5 -121zM29 255q0 61 16.5 114.5t46 93t71 62t92.5 22.5q56 0 92 -23t66 -72v80h138v-743h-142v278q-17 -35 -56.5 -59.5t-100.5 -24.5q-39 0 -78.5 16t-71.5 49
t-52.5 84.5t-20.5 122.5z" />
    <glyph glyph-name="r" unicode="r" horiz-adv-x="395" 
d="M201 533v-93q17 31 34.5 51.5t37 32.5t41 17t46.5 5h9q6 0 9 -1v-148q-24 3 -41 3q-69 0 -98.5 -35t-29.5 -116v-249h-146v533h138z" />
    <glyph glyph-name="s" unicode="s" horiz-adv-x="562" 
d="M48 368q0 31 13 63.5t40.5 58t69.5 42t101 16.5q109 0 168.5 -42t68.5 -136h-145q-4 39 -27.5 54t-62.5 15q-25 0 -41 -4.5t-25 -11t-12.5 -14.5t-3.5 -15q0 -19 15.5 -29t61.5 -21l91 -22q35 -9 65 -22t51.5 -32t34 -45t12.5 -61q0 -39 -14.5 -72t-44.5 -57t-75.5 -37.5
t-108.5 -13.5q-53 0 -98 10.5t-78 33t-52 58.5t-20 87h147q2 -18 7.5 -33t18 -25t33.5 -15.5t53 -5.5q40 0 63 12t23 34t-14 31.5t-58 21.5l-91 23q-43 11 -74.5 23.5t-51.5 30t-30 41.5t-10 59z" />
    <glyph glyph-name="t" unicode="t" horiz-adv-x="338" 
d="M84 527v150h143v-150h87v-101h-87v-275q0 -17 2.5 -26.5t9 -15t18 -7t30.5 -1.5h14q10 0 13 1v-108q-8 -1 -17 -1h-16h-33q-44 0 -75.5 5t-51 17.5t-28.5 33t-9 52.5v325h-74v101h74z" />
    <glyph glyph-name="u" unicode="u" horiz-adv-x="616" 
d="M209 533v-319q0 -58 19 -82.5t65 -24.5q53 0 80 31t27 108v287h148v-533h-142l1 75q-26 -38 -63.5 -62.5t-99.5 -24.5q-183 0 -183 203v342h148z" />
    <glyph glyph-name="v" unicode="v" horiz-adv-x="562" 
d="M175 533l108 -389l110 389h154l-190 -533h-152l-191 533h161z" />
    <glyph glyph-name="w" unicode="w" horiz-adv-x="784" 
d="M161 533l81 -379l75 379h145l79 -380l81 380h150l-154 -533h-148l-82 386l-82 -386h-150l-149 533h154z" />
    <glyph glyph-name="x" unicode="x" horiz-adv-x="562" 
d="M197 532l86 -151l84 151h170l-174 -260l181 -272h-179l-88 156l-88 -156h-175l181 270l-173 262h175z" />
    <glyph glyph-name="y" unicode="y" horiz-adv-x="562" 
d="M170 533l114 -389l107 389h153l-195 -560q-21 -60 -37 -96.5t-36 -57t-48.5 -27.5t-73.5 -7q-24 0 -38 0.5t-27 0.5v115q5 -1 9.5 -1.5t8.5 -0.5h15q29 0 48.5 10t27.5 36l9 28l-197 560h160z" />
    <glyph glyph-name="z" unicode="z" horiz-adv-x="500" 
d="M467 533v-119l-266 -297h276v-117h-462v112l269 304h-250v117h433z" />
    <glyph glyph-name="braceleft" unicode="{" horiz-adv-x="394" 
d="M2 295q19 7 36.5 16t31.5 24t22.5 38.5t8.5 59.5v135q0 18 4 45.5t24.5 53.5t62.5 45t119 19v-79q-19 -5 -33 -10.5t-23 -15.5t-13.5 -26.5t-4.5 -43.5v-120q0 -21 -2.5 -43.5t-13 -45t-32.5 -44t-61 -39.5q31 -13 52 -28t33.5 -34t18 -42.5t5.5 -53.5v-129q0 -30 8 -48
t19 -28.5t24 -15t23 -7.5v-80q-35 0 -72 6t-68 23.5t-50.5 48t-19.5 78.5v158q0 17 -3.5 35t-14 34.5t-30 30.5t-51.5 24v59z" />
    <glyph glyph-name="bar" unicode="|" horiz-adv-x="282" 
d="M183 727v-727h-133v727h133z" />
    <glyph glyph-name="braceright" unicode="}" horiz-adv-x="394" 
d="M22 731q59 0 99 -12t65 -33.5t35.5 -51.5t10.5 -66v-135q0 -30 5 -51.5t16 -37t30 -27t48 -22.5v-59q-18 -6 -35.5 -13.5t-31.5 -21t-23 -35t-9 -54.5v-158q0 -32 -11 -60t-35.5 -49t-65 -33.5t-98.5 -13.5v80q10 1 22.5 4t23.5 12.5t19 29t8 53.5v129q0 23 2.5 44
t13.5 40.5t32.5 37.5t59.5 36q-25 13 -45 27.5t-34 34.5t-21.5 46.5t-7.5 63.5v120q0 11 0.5 24.5t-5.5 26.5t-21.5 25t-46.5 20v79z" />
    <glyph glyph-name="asciitilde" unicode="~" horiz-adv-x="584" 
d="M1 148q6 42 18 82t31.5 71.5t48 51t66.5 19.5q5 0 16 -1.5t24 -3.5t26 -5t22 -7l114 -44q5 -2 23 -8t43 -6q27 0 47 19.5t31 65.5h86q-18 -117 -63 -170.5t-102 -53.5q-23 0 -46 5t-53 17l-102 40q-2 1 -9.5 3t-17.5 4l-20 4t-16 2q-5 0 -15.5 -1t-22.5 -9t-23.5 -25.5
t-18.5 -49.5h-87z" />
    <glyph glyph-name="Adieresis" unicode="&#xc4;" horiz-adv-x="727" 
d="M278 270l91 279l88 -279h-179zM458 720h-176l-256 -720h164l46 141h264l44 -141h168zM538 913h-132v-117h132v117zM338 913h-129v-117h129v117z" />
    <glyph glyph-name="Aring" unicode="&#xc5;" horiz-adv-x="727" 
d="M278 270l91 279l88 -279h-179zM458 720h-176l-256 -720h164l46 141h264l44 -141h168zM314 888q0 17 6 28t15 18t18.5 9.5t17.5 2.5q7 0 17 -2.5t19 -9t15 -17.5t6 -29q0 -26 -17.5 -41.5t-39.5 -15.5q-20 0 -38.5 15t-18.5 42zM264 888q0 -29 10 -49t25.5 -33t34.5 -19
t37 -6q28 0 48 10t33 25.5t19.5 34.5t6.5 37q0 27 -10 47t-25.5 33.5t-34.5 20t-37 6.5q-26 0 -46 -10t-33.5 -25.5t-20.5 -34.5t-7 -37z" />
    <glyph glyph-name="Ccedilla" unicode="&#xc7;" horiz-adv-x="722" 
d="M45 353q0 115 31.5 189t79.5 116.5t105 58.5t108 16q90 0 150.5 -27t97 -66.5t52.5 -83.5t17 -78h-155q-7 22 -16.5 44t-26 39t-43.5 28t-70 11q-30 0 -60.5 -11.5t-54.5 -40t-39.5 -76t-15.5 -120.5q0 -60 13 -104.5t36 -74.5t54 -44.5t68 -14.5q23 0 44.5 4t41.5 17.5
t37 39t31 68.5h154q-9 -51 -32.5 -98t-60 -84t-86.5 -59t-111 -22l-30 -44l21.5 4t15.5 2q37 0 62.5 -17.5t25.5 -57.5q0 -15 -6 -32t-21 -32t-40.5 -24.5t-65.5 -9.5q-11 0 -35.5 4t-69.5 23l18 42q23 -8 45 -12.5t32 -4.5q32 0 43.5 14t11.5 25v10q0 8 -9.5 17.5
t-35.5 9.5q-4 0 -15.5 -1.5t-25.5 -6.5l-22 18l46 73q-52 0 -104.5 23.5t-94.5 70.5t-68.5 116.5t-26.5 162.5z" />
    <glyph glyph-name="Eacute" unicode="&#xc9;" horiz-adv-x="667" 
d="M608 720h-527v-720h546v133h-394v180h344v129h-344v146h375v132zM397 934l-93 -147h103l151 147h-161z" />
    <glyph glyph-name="Ntilde" unicode="&#xd1;" horiz-adv-x="722" 
d="M235 720h-161v-720h145v504l286 -504h154v720h-144v-495zM210 794h65q3 15 9 23.5t13 12t13.5 4.5t10.5 1q8 0 18.5 -1.5t30.5 -9.5q30 -11 57.5 -17t38.5 -6q28 0 48.5 11.5t33.5 29.5t20.5 39t10.5 41h-67q-10 -27 -18 -34.5t-28 -7.5q-8 0 -22.5 4.5t-42.5 15.5
q-26 10 -42 13.5t-27 3.5q-33 0 -54.5 -10.5t-35 -28t-20.5 -39.5t-12 -45z" />
    <glyph glyph-name="Odieresis" unicode="&#xd6;" horiz-adv-x="778" 
d="M205 362q0 63 14.5 109.5t40 77.5t60 46t75.5 15q39 0 73.5 -15t60 -45.5t40.5 -78t15 -111.5q0 -63 -14.5 -109.5t-40 -77.5t-60 -46.5t-74.5 -15.5q-39 0 -73.5 14.5t-60.5 45.5t-41 78t-15 113zM50 362q0 -92 24 -163t69 -119.5t109 -73.5t144 -25q78 0 141.5 25
t108 73t69 118.5t24.5 162.5q0 96 -25.5 168t-71.5 119.5t-108.5 71.5t-137.5 24q-76 0 -139.5 -24.5t-109.5 -72.5t-71.5 -119.5t-25.5 -164.5zM591 932h-132v-117h132v117zM391 932h-129v-117h129v117z" />
    <glyph glyph-name="Udieresis" unicode="&#xdc;" horiz-adv-x="722" 
d="M234 720h-159v-445q0 -81 19 -137t56 -90.5t91 -50t125 -15.5q154 0 222 73.5t68 219.5v445h-159v-443q0 -87 -28.5 -126t-101.5 -39q-33 0 -58 8t-41.5 27.5t-25 51t-8.5 78.5v443zM568 913h-132v-117h132v117zM368 913h-129v-117h129v117z" />
    <glyph glyph-name="aacute" unicode="&#xe1;" horiz-adv-x="616" 
d="M179 264q0 78 31.5 117t83.5 39q57 0 87.5 -42t30.5 -120q0 -41 -9.5 -70t-25.5 -47.5t-37.5 -27t-45.5 -8.5q-49 0 -82 36.5t-33 122.5zM31 252q0 -63 18.5 -113t49 -84.5t70.5 -52.5t83 -18q63 0 100.5 25t61.5 65v-74h141v532h-142v-79q-22 45 -61 69t-90 24
t-93.5 -19.5t-73 -57t-47.5 -92.5t-17 -125zM319 752l-93 -147h103l151 147h-161z" />
    <glyph glyph-name="agrave" unicode="&#xe0;" horiz-adv-x="616" 
d="M179 264q0 78 31.5 117t83.5 39q57 0 87.5 -42t30.5 -120q0 -41 -9.5 -70t-25.5 -47.5t-37.5 -27t-45.5 -8.5q-49 0 -82 36.5t-33 122.5zM31 252q0 -63 18.5 -113t49 -84.5t70.5 -52.5t83 -18q63 0 100.5 25t61.5 65v-74h141v532h-142v-79q-22 45 -61 69t-90 24
t-93.5 -19.5t-73 -57t-47.5 -92.5t-17 -125zM303 752h-158l149 -147h103z" />
    <glyph glyph-name="acircumflex" unicode="&#xe2;" horiz-adv-x="616" 
d="M179 264q0 78 31.5 117t83.5 39q57 0 87.5 -42t30.5 -120q0 -41 -9.5 -70t-25.5 -47.5t-37.5 -27t-45.5 -8.5q-49 0 -82 36.5t-33 122.5zM31 252q0 -63 18.5 -113t49 -84.5t70.5 -52.5t83 -18q63 0 100.5 25t61.5 65v-74h141v532h-142v-79q-22 45 -61 69t-90 24
t-93.5 -19.5t-73 -57t-47.5 -92.5t-17 -125zM248 752l-115 -147h115l64 81l63 -81h117l-116 147h-128z" />
    <glyph glyph-name="adieresis" unicode="&#xe4;" horiz-adv-x="616" 
d="M179 264q0 78 31.5 117t83.5 39q57 0 87.5 -42t30.5 -120q0 -41 -9.5 -70t-25.5 -47.5t-37.5 -27t-45.5 -8.5q-49 0 -82 36.5t-33 122.5zM31 252q0 -63 18.5 -113t49 -84.5t70.5 -52.5t83 -18q63 0 100.5 25t61.5 65v-74h141v532h-142v-79q-22 45 -61 69t-90 24
t-93.5 -19.5t-73 -57t-47.5 -92.5t-17 -125zM475 731h-132v-117h132v117zM275 731h-129v-117h129v117z" />
    <glyph glyph-name="atilde" unicode="&#xe3;" horiz-adv-x="616" 
d="M179 264q0 78 31.5 117t83.5 39q57 0 87.5 -42t30.5 -120q0 -41 -9.5 -70t-25.5 -47.5t-37.5 -27t-45.5 -8.5q-49 0 -82 36.5t-33 122.5zM31 252q0 -63 18.5 -113t49 -84.5t70.5 -52.5t83 -18q63 0 100.5 25t61.5 65v-74h141v532h-142v-79q-22 45 -61 69t-90 24
t-93.5 -19.5t-73 -57t-47.5 -92.5t-17 -125zM127 612h65q3 15 9 23.5t13 12t13.5 4.5t10.5 1q8 0 18.5 -1.5t30.5 -9.5q30 -11 57.5 -17t38.5 -6q28 0 48.5 11.5t33.5 29.5t20.5 39t10.5 41h-67q-10 -27 -18 -34.5t-28 -7.5q-8 0 -22.5 4.5t-42.5 15.5q-26 10 -42 13.5
t-27 3.5q-33 0 -54.5 -10.5t-35 -28t-20.5 -39.5t-12 -45z" />
    <glyph glyph-name="aring" unicode="&#xe5;" horiz-adv-x="616" 
d="M179 264q0 78 31.5 117t83.5 39q57 0 87.5 -42t30.5 -120q0 -41 -9.5 -70t-25.5 -47.5t-37.5 -27t-45.5 -8.5q-49 0 -82 36.5t-33 122.5zM31 252q0 -63 18.5 -113t49 -84.5t70.5 -52.5t83 -18q63 0 100.5 25t61.5 65v-74h141v532h-142v-79q-22 45 -61 69t-90 24
t-93.5 -19.5t-73 -57t-47.5 -92.5t-17 -125zM252 706q0 17 6 28t15 18t18.5 9.5t17.5 2.5q7 0 17 -2.5t19 -9t15 -17.5t6 -29q0 -26 -17.5 -41.5t-39.5 -15.5q-20 0 -38.5 15t-18.5 42zM202 706q0 -29 10 -49t25.5 -33t34.5 -19t37 -6q28 0 48 10t33 25.5t19.5 34.5t6.5 37
q0 27 -10 47t-25.5 33.5t-34.5 20t-37 6.5q-26 0 -46 -10t-33.5 -25.5t-20.5 -34.5t-7 -37z" />
    <glyph glyph-name="ccedilla" unicode="&#xe7;" horiz-adv-x="562" 
d="M36 256q0 48 10.5 99.5t38.5 94t77 69.5t126 27q36 0 75.5 -6t74 -27t59.5 -62t33 -111h-148q-1 8 -4 22.5t-12.5 28t-26.5 23.5t-47 10q-21 0 -40 -7t-34 -25.5t-23.5 -50.5t-8.5 -81q0 -33 5 -62t17 -50t32 -33.5t51 -12.5q48 0 68 27t22 65h148q-2 -26 -14 -62.5
t-38.5 -69.5t-69 -56.5t-105.5 -24.5l-29 -45q10 2 19 4t18 2q36 0 62 -17t26 -58q0 -39 -33.5 -68.5t-99.5 -29.5q-29 0 -55 8.5t-52 18.5l20 42q17 -5 39.5 -11t37.5 -6q31 0 42.5 14t11.5 25q0 18 -12 27.5t-32 9.5q-4 0 -15.5 -1.5t-26.5 -6.5l-21 18l49 74
q-36 0 -74 14.5t-69.5 47t-51.5 85t-20 128.5z" />
    <glyph glyph-name="eacute" unicode="&#xe9;" 
d="M379 321h-209q7 51 33 79.5t72 28.5q49 0 75.5 -28.5t28.5 -79.5zM22 262q0 -78 23.5 -131.5t60.5 -86.5t83.5 -47t93.5 -14q56 0 100 13.5t75 37t48.5 54.5t20.5 66h-149q-13 -32 -39.5 -43.5t-54.5 -11.5q-60 0 -88.5 35.5t-29.5 92.5h362q2 84 -14.5 144.5t-49.5 99.5
t-81 57.5t-109 18.5q-55 0 -101 -19.5t-79.5 -56t-52.5 -89.5t-19 -120zM320 752l-93 -147h103l151 147h-161z" />
    <glyph glyph-name="egrave" unicode="&#xe8;" 
d="M379 321h-209q7 51 33 79.5t72 28.5q49 0 75.5 -28.5t28.5 -79.5zM22 262q0 -78 23.5 -131.5t60.5 -86.5t83.5 -47t93.5 -14q56 0 100 13.5t75 37t48.5 54.5t20.5 66h-149q-13 -32 -39.5 -43.5t-54.5 -11.5q-60 0 -88.5 35.5t-29.5 92.5h362q2 84 -14.5 144.5t-49.5 99.5
t-81 57.5t-109 18.5q-55 0 -101 -19.5t-79.5 -56t-52.5 -89.5t-19 -120zM305 752h-158l149 -147h103z" />
    <glyph glyph-name="ecircumflex" unicode="&#xea;" 
d="M379 321h-209q7 51 33 79.5t72 28.5q49 0 75.5 -28.5t28.5 -79.5zM22 262q0 -78 23.5 -131.5t60.5 -86.5t83.5 -47t93.5 -14q56 0 100 13.5t75 37t48.5 54.5t20.5 66h-149q-13 -32 -39.5 -43.5t-54.5 -11.5q-60 0 -88.5 35.5t-29.5 92.5h362q2 84 -14.5 144.5t-49.5 99.5
t-81 57.5t-109 18.5q-55 0 -101 -19.5t-79.5 -56t-52.5 -89.5t-19 -120zM210 752l-115 -147h115l64 81l63 -81h117l-116 147h-128z" />
    <glyph glyph-name="edieresis" unicode="&#xeb;" 
d="M379 321h-209q7 51 33 79.5t72 28.5q49 0 75.5 -28.5t28.5 -79.5zM22 262q0 -78 23.5 -131.5t60.5 -86.5t83.5 -47t93.5 -14q56 0 100 13.5t75 37t48.5 54.5t20.5 66h-149q-13 -32 -39.5 -43.5t-54.5 -11.5q-60 0 -88.5 35.5t-29.5 92.5h362q2 84 -14.5 144.5t-49.5 99.5
t-81 57.5t-109 18.5q-55 0 -101 -19.5t-79.5 -56t-52.5 -89.5t-19 -120zM476 731h-132v-117h132v117zM276 731h-129v-117h129v117z" />
    <glyph glyph-name="iacute" unicode="&#xed;" horiz-adv-x="278" 
d="M211 533h-147v-533h147v533zM157 752l-93 -147h103l151 147h-161z" />
    <glyph glyph-name="igrave" unicode="&#xec;" horiz-adv-x="278" 
d="M211 533h-147v-533h147v533zM118 752h-158l149 -147h103z" />
    <glyph glyph-name="icircumflex" unicode="&#xee;" horiz-adv-x="278" 
d="M211 533h-147v-533h147v533zM76 752l-115 -147h115l64 81l63 -81h117l-116 147h-128z" />
    <glyph glyph-name="idieresis" unicode="&#xef;" horiz-adv-x="278" 
d="M211 533h-147v-533h147v533zM303 731h-132v-117h132v117zM103 731h-129v-117h129v117z" />
    <glyph glyph-name="ntilde" unicode="&#xf1;" horiz-adv-x="616" 
d="M205 532h-139v-532h144v286q0 44 9 71.5t24 42.5t34 20.5t39 5.5q45 0 67 -23t22 -80v-323h148v360q0 97 -50.5 141.5t-138.5 44.5q-99 0 -159 -91v77zM127 612h65q3 15 9 23.5t13 12t13.5 4.5t10.5 1q8 0 18.5 -1.5t30.5 -9.5q30 -11 57.5 -17t38.5 -6q28 0 48.5 11.5
t33.5 29.5t20.5 39t10.5 41h-67q-10 -27 -18 -34.5t-28 -7.5q-8 0 -22.5 4.5t-42.5 15.5q-26 10 -42 13.5t-27 3.5q-33 0 -54.5 -10.5t-35 -28t-20.5 -39.5t-12 -45z" />
    <glyph glyph-name="oacute" unicode="&#xf3;" horiz-adv-x="616" 
d="M183 266q0 50 11 82t29 50t40 24.5t44 6.5q57 0 90.5 -40t33.5 -125q0 -78 -33.5 -120t-90.5 -42q-60 0 -92 41t-32 123zM32 266q0 -63 19 -115.5t54.5 -90t86.5 -58t116 -20.5q67 0 118.5 21t86 58.5t52 89t17.5 113.5q0 66 -18 119t-53.5 90t-86.5 57t-117 20
q-67 0 -118 -21.5t-86 -59t-53 -90t-18 -113.5zM319 752l-93 -147h103l151 147h-161z" />
    <glyph glyph-name="ograve" unicode="&#xf2;" horiz-adv-x="616" 
d="M183 266q0 50 11 82t29 50t40 24.5t44 6.5q57 0 90.5 -40t33.5 -125q0 -78 -33.5 -120t-90.5 -42q-60 0 -92 41t-32 123zM32 266q0 -63 19 -115.5t54.5 -90t86.5 -58t116 -20.5q67 0 118.5 21t86 58.5t52 89t17.5 113.5q0 66 -18 119t-53.5 90t-86.5 57t-117 20
q-67 0 -118 -21.5t-86 -59t-53 -90t-18 -113.5zM303 752h-158l149 -147h103z" />
    <glyph glyph-name="ocircumflex" unicode="&#xf4;" horiz-adv-x="616" 
d="M183 266q0 50 11 82t29 50t40 24.5t44 6.5q57 0 90.5 -40t33.5 -125q0 -78 -33.5 -120t-90.5 -42q-60 0 -92 41t-32 123zM32 266q0 -63 19 -115.5t54.5 -90t86.5 -58t116 -20.5q67 0 118.5 21t86 58.5t52 89t17.5 113.5q0 66 -18 119t-53.5 90t-86.5 57t-117 20
q-67 0 -118 -21.5t-86 -59t-53 -90t-18 -113.5zM248 752l-115 -147h115l64 81l63 -81h117l-116 147h-128z" />
    <glyph glyph-name="odieresis" unicode="&#xf6;" horiz-adv-x="616" 
d="M183 266q0 50 11 82t29 50t40 24.5t44 6.5q57 0 90.5 -40t33.5 -125q0 -78 -33.5 -120t-90.5 -42q-60 0 -92 41t-32 123zM32 266q0 -63 19 -115.5t54.5 -90t86.5 -58t116 -20.5q67 0 118.5 21t86 58.5t52 89t17.5 113.5q0 66 -18 119t-53.5 90t-86.5 57t-117 20
q-67 0 -118 -21.5t-86 -59t-53 -90t-18 -113.5zM475 731h-132v-117h132v117zM275 731h-129v-117h129v117z" />
    <glyph glyph-name="otilde" unicode="&#xf5;" horiz-adv-x="616" 
d="M183 266q0 50 11 82t29 50t40 24.5t44 6.5q57 0 90.5 -40t33.5 -125q0 -78 -33.5 -120t-90.5 -42q-60 0 -92 41t-32 123zM32 266q0 -63 19 -115.5t54.5 -90t86.5 -58t116 -20.5q67 0 118.5 21t86 58.5t52 89t17.5 113.5q0 66 -18 119t-53.5 90t-86.5 57t-117 20
q-67 0 -118 -21.5t-86 -59t-53 -90t-18 -113.5zM128 612h65q3 15 9 23.5t13 12t13.5 4.5t10.5 1q8 0 18.5 -1.5t30.5 -9.5q30 -11 57.5 -17t38.5 -6q28 0 48.5 11.5t33.5 29.5t20.5 39t10.5 41h-67q-10 -27 -18 -34.5t-28 -7.5q-8 0 -22.5 4.5t-42.5 15.5q-26 10 -42 13.5
t-27 3.5q-33 0 -54.5 -10.5t-35 -28t-20.5 -39.5t-12 -45z" />
    <glyph glyph-name="uacute" unicode="&#xfa;" horiz-adv-x="616" 
d="M209 533h-148v-342q0 -202 183 -202q62 0 99.5 24t63.5 62l-1 -75h142v533h-148v-287q0 -77 -27 -108t-80 -31q-46 0 -65 24.5t-19 82.5v319zM320 752l-93 -147h103l151 147h-161z" />
    <glyph glyph-name="ugrave" unicode="&#xf9;" horiz-adv-x="616" 
d="M209 533h-148v-342q0 -202 183 -202q62 0 99.5 24t63.5 62l-1 -75h142v533h-148v-287q0 -77 -27 -108t-80 -31q-46 0 -65 24.5t-19 82.5v319zM304 752h-158l149 -147h103z" />
    <glyph glyph-name="ucircumflex" unicode="&#xfb;" horiz-adv-x="616" 
d="M209 533h-148v-342q0 -202 183 -202q62 0 99.5 24t63.5 62l-1 -75h142v533h-148v-287q0 -77 -27 -108t-80 -31q-46 0 -65 24.5t-19 82.5v319zM249 752l-115 -147h115l64 81l63 -81h117l-116 147h-128z" />
    <glyph glyph-name="udieresis" unicode="&#xfc;" horiz-adv-x="616" 
d="M209 533h-148v-342q0 -202 183 -202q62 0 99.5 24t63.5 62l-1 -75h142v533h-148v-287q0 -77 -27 -108t-80 -31q-46 0 -65 24.5t-19 82.5v319zM476 731h-132v-117h132v117zM276 731h-129v-117h129v117z" />
    <glyph glyph-name="dagger" 
d="M206 485v223h140v-221h173v-115h-173v-555h-140v555h-171v113h171z" />
    <glyph glyph-name="dagger" unicode="&#x2020;" 
d="M206 485v223h140v-221h173v-115h-173v-555h-140v555h-171v113h171z" />
    <glyph glyph-name="degree" unicode="&#xb0;" horiz-adv-x="400" 
d="M204 479q33 0 55 23t22 53q0 12 -4 25.5t-13 25.5t-23.5 19.5t-36.5 7.5q-12 0 -26 -5t-25 -14.5t-18.5 -24.5t-7.5 -34q0 -32 23 -54t54 -22zM362 555q0 -25 -9 -53t-28.5 -51.5t-49 -39t-71.5 -15.5q-20 0 -47.5 7.5t-52 25.5t-42 49t-17.5 78q0 25 9 53t28.5 51
t49.5 38.5t72 15.5q24 0 51.5 -10t51.5 -29.5t39.5 -49.5t15.5 -70z" />
    <glyph glyph-name="cent" unicode="&#xa2;" 
d="M183 261q0 -34 4 -57t9.5 -38t11.5 -23.5t9 -11.5l80 292q-3 0 -6.5 0.5t-8.5 0.5q-42 0 -70.5 -42.5t-28.5 -120.5zM32 258q0 52 13 103.5t41.5 92.5t75 66.5t113.5 25.5q21 0 34.5 -1.5t21.5 -3.5l24 88h53l-29 -98q24 -8 48.5 -22t45 -36.5t35 -54.5t19.5 -77h-148
q-5 18 -11 35.5t-23 31.5l-84 -303q13 -4 26 -4q12 0 25.5 3t26 13t23 28.5t15.5 48.5h148q-2 -29 -11 -66t-35.5 -70t-75.5 -55.5t-130 -22.5q-28 0 -46 3l-29 -103h-56l36 119q-27 10 -53.5 31t-47 53t-33 75.5t-12.5 99.5z" />
    <glyph glyph-name="sterling" unicode="&#xa3;" 
d="M88 376q-14 25 -29 62.5t-15 85.5q0 29 12 63t40 63.5t74 49t114 19.5q40 0 82 -10.5t76.5 -37t57.5 -71.5t26 -113h-136q-3 34 -12.5 56.5t-23.5 36t-32 18.5t-39 5q-19 0 -36 -6.5t-30 -18t-20.5 -28t-7.5 -36.5q0 -9 0.5 -16.5t5 -21t15 -37l29.5 -63.5h138v-56h-117
q2 -26 2.5 -36t0.5 -13v-3v-4q0 -22 -4.5 -39.5t-16 -35t-30.5 -37.5t-48 -47l31 10.5t26 8t26 5t31 1.5q8 0 19.5 -1.5t22.5 -4l20 -4.5t13 -3q8 -2 20 -6t29 -4q22 0 44.5 7.5t54.5 27.5l40 -113q-9 -6 -26.5 -14t-39.5 -15.5t-45.5 -12.5t-44.5 -5q-17 0 -44.5 5.5
t-60.5 17.5q-26 9 -44 14t-43 5q-3 0 -6.5 0.5t-14 -2.5t-31 -10.5t-56.5 -23.5l-53 100q19 10 38.5 26.5t35.5 35.5t26 39.5t10 38.5q0 5 -2.5 24.5t-20.5 67.5h-85v56h54z" />
    <glyph glyph-name="section" unicode="&#xa7;" 
d="M153 315q0 -21 15 -36t50 -32l135 -68l12 7.5t13.5 11.5t11 17.5t4.5 25.5q0 4 -0.5 10t-5.5 13.5t-16 16.5t-32 19l-147 73q-5 -2 -11.5 -6t-13 -10.5t-11 -16.5t-4.5 -25zM31 278q0 19 3.5 38.5t13.5 38t28 35.5t47 32q-22 14 -37 44t-15 75q0 29 10.5 60.5t34.5 58
t63.5 43.5t97.5 17q35 0 68.5 -7.5t61.5 -27.5t47 -55.5t25 -92.5h-130q-1 7 -3.5 19.5t-10.5 24.5t-23.5 20.5t-42.5 8.5q-9 0 -21 -2.5t-22 -8.5t-17 -17t-7 -28q0 -10 2 -17.5t10 -15t22.5 -15.5t40.5 -19l79 -35q84 -37 124 -80.5t40 -94.5q0 -48 -20 -82.5t-74 -61.5
l21.5 -20.5t21 -24.5t15.5 -34t6 -50q0 -53 -20.5 -89.5t-51.5 -60t-68 -34t-71 -10.5q-35 0 -72 8t-68 28.5t-53 57t-27 93.5h137q4 -26 13 -41t20.5 -23t25 -10t27.5 -2q26 0 47.5 16.5t21.5 45.5q0 18 -10 31t-23 23t-26.5 16.5t-20.5 10.5l-82 40q-32 16 -61 32
t-50.5 35.5t-34 45t-12.5 61.5z" />
    <glyph glyph-name="bullet" horiz-adv-x="350" 
d="M141 358q0 17 5 36t17.5 35t33 26.5t52.5 10.5q18 0 37 -6t35 -19t26 -33.5t10 -49.5q0 -46 -31 -77t-77 -31q-20 0 -39.5 7t-34.5 20.5t-24.5 33.5t-9.5 47z" />
    <glyph glyph-name="bullet" unicode="&#x2022;" horiz-adv-x="350" 
d="M141 358q0 17 5 36t17.5 35t33 26.5t52.5 10.5q18 0 37 -6t35 -19t26 -33.5t10 -49.5q0 -46 -31 -77t-77 -31q-20 0 -39.5 7t-34.5 20.5t-24.5 33.5t-9.5 47z" />
    <glyph glyph-name="paragraph" unicode="&#xb6;" horiz-adv-x="558" 
d="M-33 473q0 54 15.5 99t45.5 78t74 51.5t102 18.5h322v-87h-61v-814h-102v814h-93v-814h-102v422q-43 0 -79.5 14t-63.5 43t-42.5 72.5t-15.5 102.5z" />
    <glyph glyph-name="germandbls" unicode="&#xdf;" horiz-adv-x="611" 
d="M64 506q0 52 10.5 93.5t37 71t72 45t116.5 15.5q46 0 89 -11t76 -34t53 -59t20 -85q0 -13 -2.5 -29.5t-10 -33.5t-22 -34.5t-39.5 -32.5q33 -14 55 -34t35 -44t18.5 -50.5t5.5 -53.5q0 -33 -9 -75t-36 -79.5t-76 -63t-129 -25.5q-4 0 -11.5 0.5t-15.5 1.5t-15 2t-10 2
v115q3 -1 12 -1h19q66 0 96 28.5t30 91.5q0 28 -6.5 48t-21 33.5t-39 22t-60.5 13.5q-3 1 -11 1q-2 0 -12 2v98q3 1 10 1h11q16 1 31 3.5t27 11t19 24.5t7 44q0 15 -4 30.5t-14 28t-28 20.5t-45 8q-29 0 -46.5 -7t-27 -22.5t-13 -40t-3.5 -58.5v-488h-143v506z" />
    <glyph glyph-name="registered" unicode="&#xae;" horiz-adv-x="737" 
d="M322 374h39q14 0 27.5 2.5t24 9t17 18.5t6.5 31q0 10 -4 19t-14.5 16t-28.5 11.5t-45 4.5h-22v-112zM393 559q78 0 113 -31.5t35 -85.5q0 -30 -9.5 -48.5t-24 -29t-31.5 -15.5t-32 -8q19 -3 35.5 -9t29 -19t20 -33.5t7.5 -51.5v-37q0 -19 7 -31h-103q-2 7 -2.5 17
t-2.5 22l-2 16q-6 51 -22 67.5t-45 16.5h-44v-139h-108v399h179zM76 360q0 -59 22 -113.5t62 -95.5t94.5 -65.5t119.5 -24.5q58 0 111.5 22.5t94 62.5t64.5 94.5t24 119.5q0 49 -19 101.5t-56 96t-92 71.5t-127 28q-53 0 -106.5 -20t-96 -58t-69 -93.5t-26.5 -125.5zM13 360
q0 74 27.5 139.5t76 114.5t114.5 77.5t143 28.5q63 0 127 -24t115.5 -70t84 -113t32.5 -153q0 -58 -20 -121.5t-63.5 -116.5t-111.5 -87.5t-164 -34.5q-59 0 -123 20.5t-117 64.5t-87 112t-34 163z" />
    <glyph glyph-name="copyright" unicode="&#xa9;" horiz-adv-x="737" 
d="M180 359q0 30 8 67t29.5 70t59.5 55t97 22q70 0 119 -37t65 -121l-95 1q-3 12 -7.5 25t-13 23.5t-23 17t-38.5 6.5q-9 0 -24 -2.5t-29.5 -15.5t-25 -39.5t-10.5 -75.5q0 -61 24.5 -92.5t69.5 -31.5q10 0 22 2t22.5 8.5t19 20.5t13.5 38h92q-13 -72 -57 -113.5t-117 -41.5
q-29 0 -64 11t-65.5 36t-51 66t-20.5 101zM76 360q0 -60 22.5 -114t62.5 -95t94.5 -65.5t118.5 -24.5q58 0 111.5 22.5t94 62.5t64.5 94.5t24 119.5q0 49 -19 101.5t-56 96t-92 71.5t-127 28q-48 0 -101 -18.5t-96.5 -55t-72 -92.5t-28.5 -131zM13 360q0 62 22.5 126
t67.5 116t112.5 85t158.5 33q63 0 127 -24t115.5 -70t84 -113t32.5 -153q0 -58 -20 -121.5t-63.5 -116.5t-111.5 -87.5t-164 -34.5q-59 0 -122.5 20.5t-116.5 64t-87.5 111.5t-34.5 164z" />
    <glyph glyph-name="trademark" horiz-adv-x="1000" 
d="M604 720l63 -204l62 204h156v-364h-99v261l-77 -261h-84l-77 261v-261h-100v364h156zM419 720v-90h-107v-274h-109v274h-106v90h322z" />
    <glyph glyph-name="trademark" unicode="&#x2122;" horiz-adv-x="1000" 
d="M604 720l63 -204l62 204h156v-364h-99v261l-77 -261h-84l-77 261v-261h-100v364h156zM419 720v-90h-107v-274h-109v274h-106v90h322z" />
    <glyph glyph-name="acute" unicode="&#xb4;" horiz-adv-x="333" 
d="M153 752h161l-151 -147h-103z" />
    <glyph glyph-name="dieresis" unicode="&#xa8;" horiz-adv-x="333" 
d="M309 731v-117h-132v117h132zM109 731v-117h-130v117h130z" />
    <glyph glyph-name="AE" unicode="&#xc6;" horiz-adv-x="1000" 
d="M431 269v322h-62l-109 -322h171zM268 717h684v-129h-368v-147h330v-129h-330v-181h375v-131h-528v146h-212l-49 -146h-161z" />
    <glyph glyph-name="Oslash" unicode="&#xd8;" horiz-adv-x="778" 
d="M528 550q-26 31 -60 45.5t-73 14.5q-41 0 -75.5 -15t-60 -46t-40 -77.5t-14.5 -109.5q0 -43 6.5 -77.5t18.5 -62.5zM263 169q26 -29 60 -43.5t72 -14.5q40 0 74.5 15.5t60 46.5t40 77.5t14.5 109.5q0 42 -6.5 75.5t-17.5 61.5zM668 616q34 -48 52.5 -111.5t18.5 -144.5
q0 -92 -24.5 -162.5t-69 -119t-108 -73.5t-141.5 -25q-143 0 -232 80l-94 -103l-41 44l94 103q-35 48 -54 112.5t-19 145.5q0 93 25.5 164.5t71.5 119.5t109.5 72.5t139.5 24.5q69 0 128 -20t104 -62l14 15l30 32.5l29.5 32.5l13.5 15l43 -41z" />
    <glyph glyph-name="yen" unicode="&#xa5;" 
d="M161 700l125 -301l118 301h164l-109 -231h67v-67h-100l-51 -106h135v-66h-154v-230h-148v230h-152v66h134l-52 106h-102v67h69l-116 231h172z" />
    <glyph glyph-name="ordfeminine" unicode="&#xaa;" 
d="M172 153q0 -12 2.5 -23.5t9 -20.5t19.5 -15t34 -7q9 0 28.5 1.5t39.5 13t35 36t15 70.5v41l-12 -3t-16.5 -3.5t-17 -3.5t-14.5 -3l-29 -6q-14 -3 -30 -6t-30.5 -10.5t-24 -21.5t-9.5 -39zM44 360q13 186 230 186q36 0 76 -6t73.5 -24t55 -51t21.5 -87v-238q0 -51 3 -88
t10 -52h-140q-3 8 -7 26.5t-6 35.5l-18.5 -19t-32 -26t-48 -23t-67.5 -11q-27 0 -56.5 7.5t-53.5 25.5t-40 49t-16 78q0 26 5.5 53.5t26 52t60.5 43.5t109 28l38 5q20 2 46 6.5t43 9.5v34q0 12 -3 22t-12 17.5t-26 11.5t-45 4q-45 0 -62.5 -18t-24.5 -52h-139z" />
    <glyph glyph-name="ae" unicode="&#xe6;" horiz-adv-x="889" 
d="M706 323q-2 13 -5.5 32t-14 36t-30.5 29t-54 12q-36 0 -56.5 -11t-31 -27t-14 -35.5t-4.5 -35.5h210zM171 147q0 -6 2 -16.5t9.5 -20t21.5 -17t39 -7.5q22 0 43.5 4.5t38 17.5t26.5 35t10 58v47q-20 -7 -54 -14l-52 -11q-19 -4 -34.5 -8.5t-26.5 -12t-17 -20.5t-6 -35z
M45 358q3 88 62 137.5t177 49.5q12 0 29 -0.5t38 -6t46 -16.5t54 -32q42 31 78 43t78 12q121 0 186 -75.5t63 -238.5h-362q0 -31 4.5 -56t15.5 -42.5t31 -27t52 -9.5q10 0 24.5 1t30 7t29.5 19t23 37h146q-3 -21 -16 -51.5t-41.5 -58.5t-74.5 -48t-115 -20q-17 0 -39.5 1.5
t-48 9.5t-51 26t-47.5 50q-35 -43 -83 -65t-120 -22q-51 0 -86.5 13.5t-58 36t-33 52t-10.5 61.5q0 38 10 65.5t32 47.5t56.5 32.5t83.5 20.5l80 13q9 1 20 3t21.5 4.5l19.5 4.5t13 5v33q0 9 -2.5 19t-12 18.5t-28 14t-50.5 5.5q-11 0 -25 -1.5t-26.5 -8t-21.5 -21.5
t-10 -42h-141z" />
    <glyph glyph-name="oslash" unicode="&#xf8;" horiz-adv-x="611" 
d="M220 139q20 -19 37 -28.5t52 -9.5q30 0 52.5 12.5t37.5 34.5t22 51.5t7 63.5q0 46 -10 85zM180 270v-13q0 -14 3 -35.5t12 -38.5l198 210q-12 14 -27 21.5t-29 10.5t-24 3.5t-11 0.5q-57 0 -89.5 -40.5t-32.5 -118.5zM29 266q0 58 18 110t52 90.5t83.5 61t111.5 22.5
q22 0 45.5 -1.5t48 -7t50 -17.5t50.5 -33l67 71l36 -34l-70 -72q9 -12 19 -28.5t18.5 -39t14.5 -52t6 -66.5q0 -66 -19.5 -119.5t-56 -91.5t-88.5 -58.5t-117 -20.5q-14 0 -33 1t-42 6.5t-48.5 17.5t-52.5 34l-67 -70l-36 31l69 70q-34 45 -46.5 96.5t-12.5 99.5z" />
    <glyph glyph-name="questiondown" unicode="&#xbf;" horiz-adv-x="611" 
d="M220 386v145h151v-145h-151zM550 38q-2 -50 -16.5 -92.5t-43.5 -74t-73.5 -49.5t-107.5 -18q-43 0 -89 9.5t-84 33.5t-62.5 64.5t-24.5 102.5q0 24 5 46t17 43.5t32 42.5t51 44l33 24q17 13 30 35t13 71h137q-2 -42 -5.5 -69t-11.5 -46.5t-23.5 -35t-40.5 -34.5l-34 -26
q-17 -13 -32.5 -34t-15.5 -52q0 -19 5.5 -36.5t17 -30.5t30 -21t45.5 -8q48 0 75 30t27 81h146z" />
    <glyph glyph-name="exclamdown" unicode="&#xa1;" horiz-adv-x="333" 
d="M225 329l43 -339v-177h-158v177l40 339h75zM264 531v-145h-151v145h151z" />
    <glyph glyph-name="florin" 
d="M238 479q15 80 31.5 130t39.5 78.5t54.5 38.5t75.5 10q51 0 102 -20l-25 -114q-6 4 -21.5 11t-32.5 7q-16 0 -27 -3.5t-20 -17.5t-17 -42.5t-17 -77.5h122v-101h-135l-60 -370q-12 -75 -33.5 -119t-47.5 -66.5t-54.5 -28.5t-53.5 -6q-20 0 -48 5.5t-57 16.5l25 114
l22.5 -12t31.5 -7q12 0 22 2t18.5 15.5t16.5 42t17 81.5l56 332h-123v101h138z" />
    <glyph glyph-name="florin" unicode="&#x192;" 
d="M238 479q15 80 31.5 130t39.5 78.5t54.5 38.5t75.5 10q51 0 102 -20l-25 -114q-6 4 -21.5 11t-32.5 7q-16 0 -27 -3.5t-20 -17.5t-17 -42.5t-17 -77.5h122v-101h-135l-60 -370q-12 -75 -33.5 -119t-47.5 -66.5t-54.5 -28.5t-53.5 -6q-20 0 -48 5.5t-57 16.5l25 114
l22.5 -12t31.5 -7q12 0 22 2t18.5 15.5t16.5 42t17 81.5l56 332h-123v101h138z" />
    <glyph glyph-name="guillemotleft" unicode="&#xab;" 
d="M470 480v-119l-99 -86l99 -85v-119l-168 145v118zM252 480v-119l-98 -86l98 -85v-119l-168 145v118z" />
    <glyph glyph-name="guillemotright" unicode="&#xbb;" 
d="M473 334v-118l-167 -145v119l99 85l-99 86v119zM256 334v-118l-168 -145v119l100 85l-100 86v119z" />
    <glyph glyph-name="ellipsis" unicode="&#x85;" horiz-adv-x="1000" 
d="M910 150v-150h-153v150h153zM577 150v-150h-153v150h153zM245 150v-150h-155v150h155z" />
    <glyph glyph-name="ellipsis" unicode="&#x2026;" horiz-adv-x="1000" 
d="M910 150v-150h-153v150h153zM577 150v-150h-153v150h153zM245 150v-150h-155v150h155z" />
    <glyph glyph-name="Agrave" unicode="&#xc0;" horiz-adv-x="727" 
d="M278 270l91 279l88 -279h-179zM458 720h-176l-256 -720h164l46 141h264l44 -141h168zM366 934h-158l149 -147h103z" />
    <glyph glyph-name="Atilde" unicode="&#xc3;" horiz-adv-x="727" 
d="M278 270l91 279l88 -279h-179zM458 720h-176l-256 -720h164l46 141h264l44 -141h168zM190 794h65q3 15 9 23.5t13 12t13.5 4.5t10.5 1q8 0 18.5 -1.5t30.5 -9.5q30 -11 57.5 -17t38.5 -6q28 0 48.5 11.5t33.5 29.5t20.5 39t10.5 41h-67q-10 -27 -18 -34.5t-28 -7.5
q-8 0 -22.5 4.5t-42.5 15.5q-26 10 -42 13.5t-27 3.5q-33 0 -54.5 -10.5t-35 -28t-20.5 -39.5t-12 -45z" />
    <glyph glyph-name="Otilde" unicode="&#xd5;" horiz-adv-x="778" 
d="M205 362q0 63 14.5 109.5t40 77.5t60 46t75.5 15q39 0 73.5 -15t60 -45.5t40.5 -78t15 -111.5q0 -63 -14.5 -109.5t-40 -77.5t-60 -46.5t-74.5 -15.5q-39 0 -73.5 14.5t-60.5 45.5t-41 78t-15 113zM50 362q0 -92 24 -163t69 -119.5t109 -73.5t144 -25q78 0 141.5 25
t108 73t69 118.5t24.5 162.5q0 96 -25.5 168t-71.5 119.5t-108.5 71.5t-137.5 24q-76 0 -139.5 -24.5t-109.5 -72.5t-71.5 -119.5t-25.5 -164.5zM244 813h65q3 15 9 23.5t13 12t13.5 4.5t10.5 1q8 0 18.5 -1.5t30.5 -9.5q30 -11 57.5 -17t38.5 -6q28 0 48.5 11.5t33.5 29.5
t20.5 39t10.5 41h-67q-10 -27 -18 -34.5t-28 -7.5q-8 0 -22.5 4.5t-42.5 15.5q-26 10 -42 13.5t-27 3.5q-33 0 -54.5 -10.5t-35 -28t-20.5 -39.5t-12 -45z" />
    <glyph glyph-name="OE" horiz-adv-x="1000" 
d="M189 352q0 -37 7 -80t25.5 -79.5t50.5 -61t82 -24.5q27 0 50 8t39 20.5t25 27t9 28.5v326q0 11 -4.5 26t-18 28.5t-37.5 22.5t-63 9q-73 0 -119 -62.5t-46 -188.5zM37 359q0 35 5 76.5t17.5 83t33.5 81t53.5 69.5t77 48t104.5 18q12 0 28.5 -1t37 -7t44.5 -18.5t50 -35.5
v44h472v-129h-332v-151h309v-124h-309v-182h331v-131h-471v46q-22 -33 -59 -48.5t-98 -16.5q-84 -1 -140.5 35t-90.5 92t-48.5 123t-14.5 128z" />
    <glyph glyph-name="OE" unicode="&#x152;" horiz-adv-x="1000" 
d="M189 352q0 -37 7 -80t25.5 -79.5t50.5 -61t82 -24.5q27 0 50 8t39 20.5t25 27t9 28.5v326q0 11 -4.5 26t-18 28.5t-37.5 22.5t-63 9q-73 0 -119 -62.5t-46 -188.5zM37 359q0 35 5 76.5t17.5 83t33.5 81t53.5 69.5t77 48t104.5 18q12 0 28.5 -1t37 -7t44.5 -18.5t50 -35.5
v44h472v-129h-332v-151h309v-124h-309v-182h331v-131h-471v46q-22 -33 -59 -48.5t-98 -16.5q-84 -1 -140.5 35t-90.5 92t-48.5 123t-14.5 128z" />
    <glyph glyph-name="oe" horiz-adv-x="972" 
d="M789 321q-2 51 -28.5 79.5t-75.5 28.5q-46 0 -72 -28.5t-33 -79.5h209zM183 266q0 -82 32 -123t92 -41q57 0 90.5 42t33.5 120q0 85 -33.5 125t-90.5 40q-22 0 -44 -6.5t-40 -24.5t-29 -50t-11 -82zM506 59q-33 -37 -82 -57.5t-116 -20.5q-65 0 -116 21t-86.5 58.5
t-54.5 90t-19 115.5q0 61 18 113.5t53 90t86 59t118 21.5t117 -20.5t83 -58.5q32 37 77 56.5t100 19.5q61 0 109 -18.5t81 -57.5t49.5 -99.5t14.5 -144.5h-362q1 -57 29.5 -92.5t88.5 -35.5q28 0 54.5 11.5t39.5 43.5h149q-3 -35 -20.5 -66t-48.5 -54.5t-75 -37.5t-100 -14
q-51 0 -100.5 17.5t-86.5 59.5z" />
    <glyph glyph-name="oe" unicode="&#x153;" horiz-adv-x="972" 
d="M789 321q-2 51 -28.5 79.5t-75.5 28.5q-46 0 -72 -28.5t-33 -79.5h209zM183 266q0 -82 32 -123t92 -41q57 0 90.5 42t33.5 120q0 85 -33.5 125t-90.5 40q-22 0 -44 -6.5t-40 -24.5t-29 -50t-11 -82zM506 59q-33 -37 -82 -57.5t-116 -20.5q-65 0 -116 21t-86.5 58.5
t-54.5 90t-19 115.5q0 61 18 113.5t53 90t86 59t118 21.5t117 -20.5t83 -58.5q32 37 77 56.5t100 19.5q61 0 109 -18.5t81 -57.5t49.5 -99.5t14.5 -144.5h-362q1 -57 29.5 -92.5t88.5 -35.5q28 0 54.5 11.5t39.5 43.5h149q-3 -35 -20.5 -66t-48.5 -54.5t-75 -37.5t-100 -14
q-51 0 -100.5 17.5t-86.5 59.5z" />
    <glyph glyph-name="endash" 
d="M558 335v-109h-560v109h560z" />
    <glyph glyph-name="endash" unicode="&#x2013;" 
d="M558 335v-109h-560v109h560z" />
    <glyph glyph-name="emdash" horiz-adv-x="1000" 
d="M882 335v-109h-764v109h764z" />
    <glyph glyph-name="emdash" unicode="&#x2014;" horiz-adv-x="1000" 
d="M882 335v-109h-764v109h764z" />
    <glyph glyph-name="quotedblleft" horiz-adv-x="517" 
d="M309 450v104q0 28 6 55t22 50t43 40.5t69 27.5v-51q-14 -5 -28 -12.5t-25.5 -19t-18 -27t-4.5 -35.5h78v-132h-142zM71 450v104q0 28 6 55t21.5 50t42.5 41t70 27v-51q-13 -5 -27.5 -12.5t-26 -18.5t-18.5 -26.5t-5 -36.5h80v-132h-143z" />
    <glyph glyph-name="quotedblleft" unicode="&#x201c;" horiz-adv-x="517" 
d="M309 450v104q0 28 6 55t22 50t43 40.5t69 27.5v-51q-14 -5 -28 -12.5t-25.5 -19t-18 -27t-4.5 -35.5h78v-132h-142zM71 450v104q0 28 6 55t21.5 50t42.5 41t70 27v-51q-13 -5 -27.5 -12.5t-26 -18.5t-18.5 -26.5t-5 -36.5h80v-132h-143z" />
    <glyph glyph-name="quotedblright" horiz-adv-x="517" 
d="M457 717v-104q0 -69 -35 -114t-104 -58v52q33 10 54 32.5t21 61.5h-79v130h143zM220 717v-104q0 -40 -10 -69.5t-28.5 -50.5t-44.5 -33.5t-57 -18.5v52q11 3 24.5 9t25.5 16.5t19.5 27t6.5 41.5h-78v130h142z" />
    <glyph glyph-name="quotedblright" unicode="&#x201d;" horiz-adv-x="517" 
d="M457 717v-104q0 -69 -35 -114t-104 -58v52q33 10 54 32.5t21 61.5h-79v130h143zM220 717v-104q0 -40 -10 -69.5t-28.5 -50.5t-44.5 -33.5t-57 -18.5v52q11 3 24.5 9t25.5 16.5t19.5 27t6.5 41.5h-78v130h142z" />
    <glyph glyph-name="quoteleft" horiz-adv-x="284" 
d="M67 450v104q0 31 7 58.5t23 50t43 39t67 25.5v-51q-28 -9 -43.5 -22.5t-23 -27.5t-9 -26t-1.5 -18h80v-132h-143z" />
    <glyph glyph-name="quoteleft" unicode="&#x2018;" horiz-adv-x="284" 
d="M67 450v104q0 31 7 58.5t23 50t43 39t67 25.5v-51q-28 -9 -43.5 -22.5t-23 -27.5t-9 -26t-1.5 -18h80v-132h-143z" />
    <glyph glyph-name="quoteright" horiz-adv-x="284" 
d="M206 717v-104q0 -24 -5 -50.5t-20.5 -50.5t-43 -43t-72.5 -28v52q11 3 24.5 9t25.5 16.5t20 27t7 41.5h-80v130h144z" />
    <glyph glyph-name="quoteright" unicode="&#x2019;" horiz-adv-x="284" 
d="M206 717v-104q0 -24 -5 -50.5t-20.5 -50.5t-43 -43t-72.5 -28v52q11 3 24.5 9t25.5 16.5t20 27t7 41.5h-80v130h144z" />
    <glyph glyph-name="ydieresis" unicode="&#xff;" horiz-adv-x="562" 
d="M170 533h-160l197 -559l-9 -28q-8 -26 -27.5 -36t-48.5 -10h-15q-4 0 -8.5 0.5t-9.5 1.5v-115q13 0 27 -0.5t38 -0.5q45 0 73.5 7t48.5 27.5t36 57t37 96.5l195 559h-153l-107 -389zM452 731h-132v-117h132v117zM252 731h-129v-117h129v117z" />
    <glyph glyph-name="Ydieresis" horiz-adv-x="667" 
d="M200 720h-183l246 -451v-269h157v269l237 451h-176l-137 -311zM544 913h-132v-117h132v117zM344 913h-129v-117h129v117z" />
    <glyph glyph-name="Ydieresis" unicode="&#x178;" horiz-adv-x="667" 
d="M200 720h-183l246 -451v-269h157v269l237 451h-176l-137 -311zM544 913h-132v-117h132v117zM344 913h-129v-117h129v117z" />
    <glyph glyph-name="currency" unicode="&#xa4;" horiz-adv-x="542" 
d="M5 387v59h62q15 140 79 203t161 63q100 0 152 -52.5t59 -166.5h-142q-3 51 -19 77t-58 26q-18 0 -31.5 -7t-24 -24t-17.5 -46t-11 -73h195v-59h-197q-1 -5 -1 -9v-9v-20v-19q0 -13 1 -18h197v-59h-195q3 -44 10.5 -73.5t18.5 -47.5t25 -25.5t31 -7.5q33 0 54 27.5
t26 78.5h142q-2 -49 -16 -90t-41.5 -70.5t-69 -46t-98.5 -16.5q-47 0 -86 13t-69 44t-49.5 83t-26.5 131h-61v59h58q-1 5 -1 18v19v19v9t1 10h-58z" />
    <glyph glyph-name="guilsinglleft" horiz-adv-x="333" 
d="M251 480v-119l-100 -86l100 -85v-119l-169 145v118z" />
    <glyph glyph-name="guilsinglleft" unicode="&#x2039;" horiz-adv-x="333" 
d="M251 480v-119l-100 -86l100 -85v-119l-169 145v118z" />
    <glyph glyph-name="guilsinglright" horiz-adv-x="333" 
d="M251 334v-118l-168 -145v119l99 85l-99 86v119z" />
    <glyph glyph-name="guilsinglright" unicode="&#x203a;" horiz-adv-x="333" 
d="M251 334v-118l-168 -145v119l99 85l-99 86v119z" />
    <glyph glyph-name="fi" unicode="&#xfb01;" horiz-adv-x="622" 
d="M553 531v-531h-143v531h143zM551 725v-130h-141v130h141zM86 528v30q0 44 8 76t28 52.5t55 30.5t88 10q33 0 54 -3v-116q-5 1 -15 1.5t-24 0.5q-48 0 -48 -38v-44h92v-101h-92v-427h-144v427h-78v101h76z" />
    <glyph glyph-name="fl" unicode="&#xfb02;" horiz-adv-x="622" 
d="M553 720v-720h-143v720h143zM86 528v30q0 44 8 76t28 52.5t55 30.5t88 10q33 0 54 -3v-116q-5 1 -15 1.5t-24 0.5q-48 0 -48 -38v-44h92v-101h-92v-427h-144v427h-78v101h76z" />
    <glyph glyph-name="daggerdbl" 
d="M207 494v211h136v-211h176v-114h-176v-236h176v-112l-176 -1v-214h-136v215h-172v113h172v235h-172v114h172z" />
    <glyph glyph-name="daggerdbl" unicode="&#x2021;" 
d="M207 494v211h136v-211h176v-114h-176v-236h176v-112l-176 -1v-214h-136v215h-172v113h172v235h-172v114h172z" />
    <glyph glyph-name="periodcentered" unicode="&#xb7;" horiz-adv-x="278" 
d="M221 352q0 -32 -21 -57.5t-63 -25.5q-12 0 -26.5 3.5t-27 13t-21.5 25.5t-9 41q0 9 3 23t12 27.5t25 23t43 9.5q12 0 26.5 -4t27.5 -14t22 -25.5t9 -39.5z" />
    <glyph glyph-name="periodcentered" unicode="&#x22c5;" horiz-adv-x="278" 
d="M221 352q0 -32 -21 -57.5t-63 -25.5q-12 0 -26.5 3.5t-27 13t-21.5 25.5t-9 41q0 9 3 23t12 27.5t25 23t43 9.5q12 0 26.5 -4t27.5 -14t22 -25.5t9 -39.5z" />
    <glyph glyph-name="quotesinglbase" horiz-adv-x="284" 
d="M216 144v-117q0 -36 -5 -65t-20.5 -52.5t-43.5 -42t-74 -34.5v55q10 3 23 7.5t24 15.5t19.5 32t9.5 57h-79v144h146z" />
    <glyph glyph-name="quotesinglbase" unicode="&#x201a;" horiz-adv-x="284" 
d="M216 144v-117q0 -36 -5 -65t-20.5 -52.5t-43.5 -42t-74 -34.5v55q10 3 23 7.5t24 15.5t19.5 32t9.5 57h-79v144h146z" />
    <glyph glyph-name="quotedblbase" horiz-adv-x="517" 
d="M445 144v-117q0 -33 -4 -63.5t-18.5 -56t-43.5 -44.5t-78 -30v55q12 3 25 8t24 16.5t18.5 32t9.5 55.5h-79v144h146zM220 144v-117q0 -51 -10 -83.5t-28.5 -53.5t-44.5 -33.5t-59 -23.5v55q10 3 22.5 7.5t24 15.5t19.5 32t10 57h-80v144h146z" />
    <glyph glyph-name="quotedblbase" unicode="&#x201e;" horiz-adv-x="517" 
d="M445 144v-117q0 -33 -4 -63.5t-18.5 -56t-43.5 -44.5t-78 -30v55q12 3 25 8t24 16.5t18.5 32t9.5 55.5h-79v144h146zM220 144v-117q0 -51 -10 -83.5t-28.5 -53.5t-44.5 -33.5t-59 -23.5v55q10 3 22.5 7.5t24 15.5t19.5 32t10 57h-80v144h146z" />
    <glyph glyph-name="perthousand" horiz-adv-x="1000" 
d="M830 224q-29 0 -50.5 -21.5t-21.5 -50.5t21.5 -50.5t50.5 -21.5t50.5 21.5t21.5 50.5t-21.5 50.5t-50.5 21.5zM164 636q-29 0 -50.5 -21.5t-21.5 -50.5t21.5 -50.5t50.5 -21.5t50.5 21.5t21.5 50.5t-21.5 50.5t-50.5 21.5zM472 224q-29 0 -50.5 -21.5t-21.5 -50.5
t21.5 -50.5t50.5 -21.5t50.5 21.5t21.5 50.5t-21.5 50.5t-50.5 21.5zM830 315q34 0 63.5 -13t51.5 -35t35 -51.5t13 -63.5t-13 -63.5t-35 -51.5t-51.5 -35t-63.5 -13t-63.5 13t-51.5 35t-35 51.5t-13 63.5t13 63.5t35 51.5t51.5 35t63.5 13zM472 315q34 0 63.5 -13t51.5 -35
t35 -51.5t13 -63.5t-13 -63.5t-35 -51.5t-51.5 -35t-63.5 -13t-63.5 13t-51.5 35t-35 51.5t-13 63.5t13 63.5t35 51.5t51.5 35t63.5 13zM164 727q34 0 63.5 -13t51.5 -35t35 -51.5t13 -63.5t-13 -63.5t-35 -51.5t-51.5 -35t-63.5 -13t-63.5 13t-51.5 35t-35 51.5t-13 63.5
t13 63.5t35 51.5t51.5 35t63.5 13zM495 724h94l-451 -750h-95z" />
    <glyph glyph-name="perthousand" unicode="&#x2030;" horiz-adv-x="1000" 
d="M830 224q-29 0 -50.5 -21.5t-21.5 -50.5t21.5 -50.5t50.5 -21.5t50.5 21.5t21.5 50.5t-21.5 50.5t-50.5 21.5zM164 636q-29 0 -50.5 -21.5t-21.5 -50.5t21.5 -50.5t50.5 -21.5t50.5 21.5t21.5 50.5t-21.5 50.5t-50.5 21.5zM472 224q-29 0 -50.5 -21.5t-21.5 -50.5
t21.5 -50.5t50.5 -21.5t50.5 21.5t21.5 50.5t-21.5 50.5t-50.5 21.5zM830 315q34 0 63.5 -13t51.5 -35t35 -51.5t13 -63.5t-13 -63.5t-35 -51.5t-51.5 -35t-63.5 -13t-63.5 13t-51.5 35t-35 51.5t-13 63.5t13 63.5t35 51.5t51.5 35t63.5 13zM472 315q34 0 63.5 -13t51.5 -35
t35 -51.5t13 -63.5t-13 -63.5t-35 -51.5t-51.5 -35t-63.5 -13t-63.5 13t-51.5 35t-35 51.5t-13 63.5t13 63.5t35 51.5t51.5 35t63.5 13zM164 727q34 0 63.5 -13t51.5 -35t35 -51.5t13 -63.5t-13 -63.5t-35 -51.5t-51.5 -35t-63.5 -13t-63.5 13t-51.5 35t-35 51.5t-13 63.5
t13 63.5t35 51.5t51.5 35t63.5 13zM495 724h94l-451 -750h-95z" />
    <glyph glyph-name="Acircumflex" unicode="&#xc2;" horiz-adv-x="727" 
d="M278 270l91 279l88 -279h-179zM458 720h-176l-256 -720h164l46 141h264l44 -141h168zM311 934l-115 -147h115l64 81l63 -81h117l-116 147h-128z" />
    <glyph glyph-name="Ecircumflex" unicode="&#xca;" horiz-adv-x="667" 
d="M608 720h-527v-720h546v133h-394v180h344v129h-344v146h375v132zM327 934l-115 -147h115l64 81l63 -81h117l-116 147h-128z" />
    <glyph glyph-name="Aacute" unicode="&#xc1;" horiz-adv-x="727" 
d="M278 270l91 279l88 -279h-179zM458 720h-176l-256 -720h164l46 141h264l44 -141h168zM382 934l-93 -147h103l151 147h-161z" />
    <glyph glyph-name="Edieresis" unicode="&#xcb;" horiz-adv-x="667" 
d="M608 720h-527v-720h546v133h-394v180h344v129h-344v146h375v132zM553 913h-132v-117h132v117zM353 913h-129v-117h129v117z" />
    <glyph glyph-name="Egrave" unicode="&#xc8;" horiz-adv-x="667" 
d="M608 720h-527v-720h546v133h-394v180h344v129h-344v146h375v132zM382 934h-158l149 -147h103z" />
    <glyph glyph-name="Iacute" unicode="&#xcd;" horiz-adv-x="278" 
d="M216 720h-155v-720h155v720zM154 934l-93 -147h103l151 147h-161z" />
    <glyph glyph-name="Icircumflex" unicode="&#xce;" horiz-adv-x="278" 
d="M216 720h-155v-720h155v720zM177 934l-115 -147h115l64 81l63 -81h117l-116 147h-128z" />
    <glyph glyph-name="Idieresis" unicode="&#xcf;" horiz-adv-x="278" 
d="M216 720h-155v-720h155v720zM391 913h-132v-117h132v117zM191 913h-129v-117h129v117z" />
    <glyph glyph-name="Igrave" unicode="&#xcc;" horiz-adv-x="278" 
d="M216 720h-155v-720h155v720zM220 934h-158l149 -147h103z" />
    <glyph glyph-name="Oacute" unicode="&#xd3;" horiz-adv-x="778" 
d="M205 362q0 63 14.5 109.5t40 77.5t60 46t75.5 15q39 0 73.5 -15t60 -45.5t40.5 -78t15 -111.5q0 -63 -14.5 -109.5t-40 -77.5t-60 -46.5t-74.5 -15.5q-39 0 -73.5 14.5t-60.5 45.5t-41 78t-15 113zM50 362q0 -92 24 -163t69 -119.5t109 -73.5t144 -25q78 0 141.5 25
t108 73t69 118.5t24.5 162.5q0 96 -25.5 168t-71.5 119.5t-108.5 71.5t-137.5 24q-76 0 -139.5 -24.5t-109.5 -72.5t-71.5 -119.5t-25.5 -164.5zM435 953l-93 -147h103l151 147h-161z" />
    <glyph glyph-name="Ocircumflex" unicode="&#xd4;" horiz-adv-x="778" 
d="M205 362q0 63 14.5 109.5t40 77.5t60 46t75.5 15q39 0 73.5 -15t60 -45.5t40.5 -78t15 -111.5q0 -63 -14.5 -109.5t-40 -77.5t-60 -46.5t-74.5 -15.5q-39 0 -73.5 14.5t-60.5 45.5t-41 78t-15 113zM50 362q0 -92 24 -163t69 -119.5t109 -73.5t144 -25q78 0 141.5 25
t108 73t69 118.5t24.5 162.5q0 96 -25.5 168t-71.5 119.5t-108.5 71.5t-137.5 24q-76 0 -139.5 -24.5t-109.5 -72.5t-71.5 -119.5t-25.5 -164.5zM365 953l-115 -147h115l64 81l63 -81h117l-116 147h-128z" />
    <glyph glyph-name="Ograve" unicode="&#xd2;" horiz-adv-x="778" 
d="M205 362q0 63 14.5 109.5t40 77.5t60 46t75.5 15q39 0 73.5 -15t60 -45.5t40.5 -78t15 -111.5q0 -63 -14.5 -109.5t-40 -77.5t-60 -46.5t-74.5 -15.5q-39 0 -73.5 14.5t-60.5 45.5t-41 78t-15 113zM50 362q0 -92 24 -163t69 -119.5t109 -73.5t144 -25q78 0 141.5 25
t108 73t69 118.5t24.5 162.5q0 96 -25.5 168t-71.5 119.5t-108.5 71.5t-137.5 24q-76 0 -139.5 -24.5t-109.5 -72.5t-71.5 -119.5t-25.5 -164.5zM420 953h-158l149 -147h103z" />
    <glyph glyph-name="Uacute" unicode="&#xda;" horiz-adv-x="722" 
d="M234 720h-159v-445q0 -81 19 -137t56 -90.5t91 -50t125 -15.5q154 0 222 73.5t68 219.5v445h-159v-443q0 -87 -28.5 -126t-101.5 -39q-33 0 -58 8t-41.5 27.5t-25 51t-8.5 78.5v443zM412 934l-93 -147h103l151 147h-161z" />
    <glyph glyph-name="Ucircumflex" unicode="&#xdb;" horiz-adv-x="722" 
d="M234 720h-159v-445q0 -81 19 -137t56 -90.5t91 -50t125 -15.5q154 0 222 73.5t68 219.5v445h-159v-443q0 -87 -28.5 -126t-101.5 -39q-33 0 -58 8t-41.5 27.5t-25 51t-8.5 78.5v443zM342 934l-115 -147h115l64 81l63 -81h117l-116 147h-128z" />
    <glyph glyph-name="Ugrave" unicode="&#xd9;" horiz-adv-x="722" 
d="M234 720h-159v-445q0 -81 19 -137t56 -90.5t91 -50t125 -15.5q154 0 222 73.5t68 219.5v445h-159v-443q0 -87 -28.5 -126t-101.5 -39q-33 0 -58 8t-41.5 27.5t-25 51t-8.5 78.5v443zM397 934h-158l149 -147h103z" />
    <glyph glyph-name="dotlessi" unicode="&#x131;" horiz-adv-x="278" 
d="M211 533v-533h-147v533h147z" />
    <glyph glyph-name="circumflex" horiz-adv-x="333" 
d="M81 752h128l116 -147h-117l-63 81l-64 -81h-116z" />
    <glyph glyph-name="circumflex" unicode="&#x2c6;" horiz-adv-x="333" 
d="M81 752h128l116 -147h-117l-63 81l-64 -81h-116z" />
    <glyph glyph-name="tilde" horiz-adv-x="333" 
d="M-41 612q5 23 12.5 45t21 39.5t35 28t54.5 10.5q11 0 27 -3.5t42 -13.5q28 -11 42.5 -15.5t22.5 -4.5q20 0 28 7.5t18 34.5h67q-3 -20 -10.5 -41t-20.5 -39t-33.5 -29.5t-48.5 -11.5q-11 0 -38.5 6t-57.5 17q-20 8 -30.5 9.5t-18.5 1.5q-4 0 -10.5 -1t-13.5 -4.5t-13 -12
t-9 -23.5h-66z" />
    <glyph glyph-name="tilde" unicode="&#x2dc;" horiz-adv-x="333" 
d="M-41 612q5 23 12.5 45t21 39.5t35 28t54.5 10.5q11 0 27 -3.5t42 -13.5q28 -11 42.5 -15.5t22.5 -4.5q20 0 28 7.5t18 34.5h67q-3 -20 -10.5 -41t-20.5 -39t-33.5 -29.5t-48.5 -11.5q-11 0 -38.5 6t-57.5 17q-20 8 -30.5 9.5t-18.5 1.5q-4 0 -10.5 -1t-13.5 -4.5t-13 -12
t-9 -23.5h-66z" />
    <glyph glyph-name="macron" unicode="&#xaf;" horiz-adv-x="333" 
d="M319 712v-76h-350v76h350z" />
    <glyph glyph-name="macron" unicode="&#x2c9;" horiz-adv-x="333" 
d="M319 712v-76h-350v76h350z" />
    <glyph glyph-name="breve" unicode="&#x2d8;" horiz-adv-x="333" 
d="M43 752q1 -11 5.5 -23t15.5 -22.5t30.5 -17.5t50.5 -7q54 0 76 20.5t26 49.5h68q-2 -27 -10.5 -53.5t-27.5 -47.5t-51 -33.5t-80 -12.5q-84 0 -124 39t-47 108h68z" />
    <glyph glyph-name="dotaccent" unicode="&#x2d9;" horiz-adv-x="333" 
d="M207 731v-117h-131v117h131z" />
    <glyph glyph-name="ring" unicode="&#x2da;" horiz-adv-x="333" 
d="M85 706q0 -27 18.5 -42t38.5 -15q22 0 39.5 15.5t17.5 41.5q0 18 -6 29t-15 17.5t-19 9t-17 2.5q-8 0 -17.5 -2.5t-18.5 -9.5t-15 -18t-6 -28zM35 706q0 18 7 37t20.5 34.5t33.5 25.5t46 10q18 0 37 -6.5t34.5 -20t25.5 -33.5t10 -47q0 -18 -6.5 -37t-19.5 -34.5
t-33 -25.5t-48 -10q-18 0 -37 6t-34.5 19t-25.5 33t-10 49z" />
    <glyph glyph-name="cedilla" unicode="&#xb8;" horiz-adv-x="333" 
d="M29 -162q17 -6 37.5 -11.5t40.5 -5.5q27 0 40.5 11t13.5 28q0 23 -15 30t-29 7q-4 0 -15.5 -2t-25.5 -6l-68 60l105 51h53l-42 -64q10 3 18.5 4.5t19.5 1.5q12 0 27.5 -2.5t28.5 -10.5t22 -23t9 -39q0 -15 -6 -32.5t-21 -32t-41 -24t-65 -9.5q-12 0 -39.5 5t-66.5 22z
" />
    <glyph glyph-name="hungarumlaut" unicode="&#x2dd;" horiz-adv-x="333" 
d="M272 752h145l-120 -143h-99zM52 752h146l-120 -143h-99z" />
    <glyph glyph-name="ogonek" unicode="&#x2db;" horiz-adv-x="333" 
d="M33 -134q0 9 1 21.5t12 29t35.5 37t71.5 46.5h90l-33 -23q-26 -18 -46.5 -37t-20.5 -44q0 -17 12.5 -33.5t44.5 -16.5q4 0 11.5 1.5t15.5 3.5l14.5 3.5t8.5 2.5v-70q-23 -7 -46 -12.5t-52 -5.5q-20 0 -41.5 5.5t-38.5 17.5t-28 30t-11 44z" />
    <glyph glyph-name="caron" unicode="&#x2c7;" horiz-adv-x="333" 
d="M81 752l64 -82l63 82h117l-116 -147h-128l-116 147h116z" />
    <glyph glyph-name="numbersign" unicode="#" 
d="M221 277h76l39 141h-78zM181 502l53 195h99l-52 -195h78l51 195h100l-52 -195h97l-23 -84h-96l-38 -141h97l-23 -84h-97l-53 -193h-99l51 193h-77l-52 -193h-100l53 193h-98l23 84h97l39 141h-99l23 84h98z" />
    <glyph glyph-name="exclam" unicode="!" horiz-adv-x="338" 
d="M264 145v-145h-151v145h151zM268 717v-177l-42 -338h-75l-42 338v177h159z" />
    <glyph glyph-name="quotedbl" unicode="&#x22;" horiz-adv-x="486" 
d="M333 720l-23 -299h-91l-24 299h138zM147 720l-25 -299h-91l-23 299h139z" />
    <glyph glyph-name="nonbreakingspace" horiz-adv-x="500" 
 />
    <glyph glyph-name="fraction" unicode="&#x2215;" horiz-adv-x="167" 
d="M253 707h80l-424 -726h-79z" />
    <glyph glyph-name="FL20ACh" horiz-adv-x="542" 
d="M5 387v59h62q15 140 79 203t161 63q100 0 152 -52.5t59 -166.5h-142q-3 51 -19 77t-58 26q-18 0 -31.5 -7t-24 -24t-17.5 -46t-11 -73h195v-59h-197q-1 -5 -1 -9v-9v-20v-19q0 -13 1 -18h197v-59h-195q3 -44 10.5 -73.5t18.5 -47.5t25 -25.5t31 -7.5q33 0 54 27.5
t26 78.5h142q-2 -49 -16 -90t-41.5 -70.5t-69 -46t-98.5 -16.5q-47 0 -86 13t-69 44t-49.5 83t-26.5 131h-61v59h58q-1 5 -1 18v19v19v9t1 10h-58z" />
    <glyph glyph-name="FL20ACh" unicode="&#x20ac;" horiz-adv-x="542" 
d="M5 387v59h62q15 140 79 203t161 63q100 0 152 -52.5t59 -166.5h-142q-3 51 -19 77t-58 26q-18 0 -31.5 -7t-24 -24t-17.5 -46t-11 -73h195v-59h-197q-1 -5 -1 -9v-9v-20v-19q0 -13 1 -18h197v-59h-195q3 -44 10.5 -73.5t18.5 -47.5t25 -25.5t31 -7.5q33 0 54 27.5
t26 78.5h142q-2 -49 -16 -90t-41.5 -70.5t-69 -46t-98.5 -16.5q-47 0 -86 13t-69 44t-49.5 83t-26.5 131h-61v59h58q-1 5 -1 18v19v19v9t1 10h-58z" />
  </font>
</defs>
</svg>
